<?xml version="1.0" standalone="no"?>
<!DOCTYPE svg PUBLIC "-//W3C//DTD SVG 1.1//EN" "http://www.w3.org/Graphics/SVG/1.1/DTD/svg11.dtd" >
<svg>
<metadata>
Created by FontForge 20090914 at Fri Feb 24 04:32:13 2012
 By root
Copyright (c) 2007 by Yann Le Coroller. All rights reserved.
</metadata>
<defs>
<font id="AlteHaasGrotesk" horiz-adv-x="556" >
  <font-face 
    font-family="Alte Haas Grotesk"
    font-weight="400"
    font-stretch="normal"
    units-per-em="1000"
    panose-1="2 0 5 3 0 0 0 2 0 4"
    ascent="800"
    descent="-200"
    x-height="516"
    cap-height="711.5"
    bbox="-337.333 -214 1076 951.043"
    underline-thickness="50"
    underline-position="-75"
    unicode-range="U+0008-U+FB02"
  />
<missing-glyph horiz-adv-x="500" 
d="M442 8h-384v496h384v-496zM50 512v-512h400v512h-400z" />
    <glyph glyph-name="fi" unicode="fi" horiz-adv-x="518" 
d="M224 721q18 1 38 0t28 -12q4 -6 5 -14.5t1 -18.5q0 -13 -5 -21q-4 -5 -11.5 -6.5t-16.5 -1.5t-18.5 0.5t-16.5 -0.5q-28 -8 -36.5 -25.5t-8.5 -52.5q0 -7 -1 -14.5t1 -13.5q3 -15 13 -21q8 -3 20.5 -3h23.5h15q3 -2 6 -1t6 -1q10 -3 13 -11.5t3 -21.5q-1 -4 -1 -8v-8
q-3 -15 -13 -20q-13 -5 -33.5 -2.5t-34.5 -1.5q-8 -2 -12 -7.5t-6 -14.5q-2 -7 -1 -16t1 -17v-66v-212v-50q0 -6 0.5 -13t-1.5 -12v-8l-2 -8t-3 -7q-5 -7 -15 -8t-22 -1h-19q-5 2 -9.5 3.5t-7.5 6.5q-2 3 -4 13v7q-2 5 -1.5 10.5t0.5 10.5v40v273q0 11 0.5 23t0 22.5
t-4 18.5t-11.5 11q-6 3 -13.5 3h-15.5h-15.5t-13.5 2q-9 4 -13 17q-1 5 -1 9v9q0 14 3 22.5t13 11.5q7 3 16.5 2.5t19 -0.5t17 2t12.5 8q7 8 6.5 25t-0.5 32q0 20 2.5 37.5t8.5 31.5q11 24 29.5 39t44.5 23q6 2 12.5 2.5t13.5 2.5q2 1 7 0.5t7 0.5zM375 616q7 -5 17 -5h21
h11.5t10.5 2q13 5 13.5 21t0.5 34v17.5t-3 14.5q-5 11 -20 12t-32 1q-2 -1 -4.5 -0.5t-4.5 -0.5q-12 -4 -16 -12q-3 -6 -3 -15v-17q0 -15 0.5 -30.5t8.5 -21.5zM449 472v19.5t-5 15.5q-5 8 -18.5 8.5t-26.5 0.5q-2 -1 -4.5 -0.5t-4.5 0.5q-6 -2 -11 -3t-8 -6q-5 -6 -5 -16.5
v-21.5v-423v-18.5t4 -15.5q5 -8 14.5 -9.5t22.5 -1.5h15l14 3.5t9 7.5q5 6 4.5 16.5t-0.5 20.5v423z" />
    <glyph glyph-name="fl" unicode="fl" horiz-adv-x="518" 
d="M394 713h27.5t21.5 -7q5 -7 5.5 -18.5t0.5 -23.5v-89v-405v-112v-26t-5 -22q-3 -5 -8.5 -6t-13.5 -3h-14q-11 0 -21 0.5t-15 6.5q-5 8 -5.5 20t-0.5 25v92v416v98q0 11 -0.5 23.5t4.5 19.5q4 6 15 10q2 1 4.5 0.5t4.5 0.5zM224 721q18 1 38 0t28 -12q4 -6 5 -14.5
t1 -18.5q0 -13 -5 -21q-4 -5 -11.5 -6.5t-16.5 -1.5t-18.5 0.5t-16.5 -0.5q-28 -8 -36.5 -25.5t-8.5 -52.5q0 -7 -1 -14.5t1 -13.5q3 -15 13 -21q8 -3 20.5 -3h23.5h15q3 -2 6 -1t6 -1q10 -3 13 -11.5t3 -21.5q-1 -4 -1 -8v-8q-3 -15 -13 -20q-13 -5 -33.5 -2.5t-34.5 -1.5
q-8 -2 -12 -7.5t-6 -14.5q-2 -7 -1 -16t1 -17v-66v-212v-50q0 -6 0.5 -13t-1.5 -12v-8l-2 -8t-3 -7q-5 -7 -15 -8t-22 -1h-19q-5 2 -9.5 3.5t-7.5 6.5q-2 3 -4 13v7q-2 5 -1.5 10.5t0.5 10.5v40v273q0 11 0.5 23t0 22.5t-4 18.5t-11.5 11q-6 3 -13.5 3h-15.5h-15.5t-13.5 2
q-9 4 -13 17q-1 5 -1 9v9q0 14 3 22.5t13 11.5q7 3 16.5 2.5t19 -0.5t17 2t12.5 8q7 8 6.5 25t-0.5 32q0 20 2.5 37.5t8.5 31.5q11 24 29.5 39t44.5 23q6 2 12.5 2.5t13.5 2.5q2 1 7 0.5t7 0.5z" />
    <glyph glyph-name=".notdef" horiz-adv-x="500" 
d="M442 8h-384v496h384v-496zM50 512v-512h400v512h-400z" />
    <glyph glyph-name="NULL" horiz-adv-x="0" 
 />
    <glyph glyph-name="uniE001" horiz-adv-x="278" 
 />
    <glyph glyph-name="space" unicode=" " horiz-adv-x="278" 
 />
    <glyph glyph-name="controlBS" horiz-adv-x="0" 
 />
    <glyph glyph-name="controlHT" unicode="&#x9;" horiz-adv-x="278" 
 />
    <glyph glyph-name="controlCR" unicode="&#xd;" horiz-adv-x="278" 
 />
    <glyph glyph-name="controlGS" horiz-adv-x="0" 
 />
    <glyph glyph-name="exclam" unicode="!" horiz-adv-x="259" 
d="M83 649q0 7 -0.5 15t0.5 14v11q2 10 4 14q6 7 15 9q2 1 4 0.5t4 0.5q17 0 35.5 0.5t25.5 -9.5q5 -6 5.5 -16t0.5 -20v-144v-10t-1 -9t-0.5 -8t0.5 -7q-1 -3 -1 -8v-7q-2 -7 -1.5 -15t-1.5 -15v-12q-2 -10 -2 -21t-2 -21q0 -5 -0.5 -9t-0.5 -9q-3 -14 -2.5 -30t-2.5 -30
q-1 -5 -1 -9v-9q-3 -13 -2.5 -26.5t-2.5 -26.5q-1 -3 -0.5 -6.5t-0.5 -5.5q0 -8 -1 -12q-3 -14 -5.5 -22t-16.5 -11q-2 -1 -4 0t-4 1q-10 3 -12.5 8t-5.5 16q-3 13 -2.5 27.5t-2.5 27.5q-1 5 -0.5 9.5t-0.5 9.5q-1 4 -1 8v9q-3 13 -2.5 27t-2.5 27q-1 5 -0.5 9.5t-0.5 8.5
q-1 5 -1 9v9q-2 10 -2 21t-2 21q0 3 -0.5 6t-0.5 6q-1 5 -1 11.5t-1 12.5v6q-2 5 -2 11v12v11q-1 6 -0.5 13.5t0.5 13.5v113zM184 68q0 -9 0.5 -18.5t-0.5 -18.5t-3 -16t-8 -10q-6 -4 -16.5 -4h-20.5q-13 0 -28 -0.5t-23 5.5q-11 7 -10.5 26t0.5 36q0 8 0.5 15.5t2.5 12.5
q2 7 7.5 9.5t13.5 4.5q3 1 6.5 0t5.5 0q8 0 18.5 0.5t20.5 0t18 -2.5t11 -7q4 -5 4.5 -14t0.5 -19z" />
    <glyph glyph-name="quotedbl" unicode="&#x22;" horiz-adv-x="426" 
d="M170 707q8 -10 7 -29.5t-1 -36.5v-123v-29t-6 -23q-3 -5 -8.5 -6t-11.5 -3q-9 -2 -20 1t-14 8q-7 8 -6.5 26t0.5 33v121q0 13 -1 29.5t4 25.5q4 8 16 12q2 1 4.5 0.5t4.5 0.5q10 0 18.5 -1t13.5 -6zM316 518v-29t-5 -23q-4 -5 -9.5 -6t-11.5 -3q-9 -2 -20 1t-14 8
q-7 8 -6.5 26t0.5 33v121q0 13 -0.5 29.5t3.5 25.5q4 8 16 12q2 1 4.5 0.5t4.5 0.5q10 0 19 -1t13 -6q8 -10 7 -29.5t-1 -36.5v-123z" />
    <glyph glyph-name="numbersign" unicode="#" 
d="M521 468q2 -8 0 -16v-6q-2 -5 -3.5 -9.5t-5.5 -7.5q-7 -5 -18 -5h-22.5t-22.5 -0.5t-18 -4.5q-8 -6 -9 -15.5t-4 -20.5q-5 -18 -5.5 -37.5t-5.5 -38.5q-2 -7 0 -13t3 -10t5 -7q11 -7 28 -4.5t31 -0.5q22 -6 19 -35v-8t-1 -7q-4 -12 -17.5 -14t-29 -2t-30 -1t-20.5 -10
q-6 -8 -6.5 -20t-3.5 -24q-2 -5 -1.5 -10.5t-1.5 -10.5q-4 -18 -5 -37t-6 -37q-2 -9 -3 -18t-2.5 -16.5t-6 -12.5t-13.5 -8q-10 -2 -23.5 0t-18.5 7q-5 7 -4 20t3 22q2 6 1.5 12t1.5 12q5 20 6 41t6 41q1 4 1 11q3 14 0.5 24t-13.5 13q-8 3 -18 2.5t-19 -0.5q-17 0 -35 0.5
t-28 -6.5q-8 -6 -9 -16.5t-4 -21.5q-5 -22 -6 -44.5t-6 -44.5q-2 -8 -3 -18t-2.5 -19.5t-4 -17.5t-8.5 -12q-4 -3 -8.5 -3t-9.5 -2q-7 -2 -13 0q-5 1 -9 1.5t-8 2.5q-7 5 -7.5 15.5t1.5 20.5q0 3 0.5 6.5t0.5 7.5q2 6 2 13t2 14q5 18 6 37.5t5 36.5q2 8 2.5 21t-3.5 19
q-5 9 -19 9.5t-28 0.5h-7.5t-7.5 1h-8q-9 3 -12.5 7t-5.5 14q-1 3 -1.5 8t0.5 9q2 9 3.5 15t9.5 10q4 2 7 1.5t7 0.5t8.5 1h9.5h31t24 6q8 5 9 15t3 20q5 19 6 38.5t5 38.5q2 5 0 11v5q-2 10 -9 13q-6 4 -15 4.5t-19 0t-20 -0.5t-17 2q-11 3 -16 16q-1 2 -0.5 4.5t-0.5 5.5
q0 2 -0.5 5.5t0.5 6.5q2 10 4.5 16t12.5 9q5 2 10.5 2h10.5h41t29 11q7 8 7.5 20.5t3.5 24.5q5 22 6.5 45.5t6.5 45.5q2 11 3 24t6 21t15 11q2 1 5 0.5t5 0.5q11 1 20 -0.5t14 -7.5q4 -6 3.5 -19t-2.5 -21l-15 -102q-2 -9 -3.5 -23.5t3.5 -21.5q3 -5 8 -6t11 -3h34
q17 0 33.5 -0.5t25.5 7.5q9 6 10 21t4 27q4 17 5 35.5t5 35.5q2 6 2 12.5t1 11.5q2 8 2.5 16.5t2.5 16.5q4 11 11 17q4 2 11 3.5t15 1.5t14.5 -2t9.5 -5q7 -8 5 -23.5t-4 -25.5q-1 -5 -1 -10.5t-1 -10.5q-4 -14 -5 -28.5t-4 -28.5q0 -3 -0.5 -5.5t-0.5 -5.5q-2 -7 -4 -21.5
t0 -22.5q4 -13 17 -14.5t30 -1.5q13 0 18 -1q9 -3 13 -8t6 -14zM350 379q2 8 2 19.5t-4 17.5q-3 3 -8 4.5t-10 3.5h-5q-5 1 -11.5 0.5t-11.5 -0.5h-43q-2 -1 -5.5 -0.5t-5.5 -0.5q-11 -4 -15 -10q-5 -6 -5.5 -14.5t-2.5 -17.5q-4 -16 -5 -32.5t-5 -32.5q-2 -8 -1.5 -19
t4.5 -16q7 -9 29 -8.5t38 0.5h20.5t17.5 3q8 3 11 10t5 15q1 4 0.5 6.5t0.5 5.5q4 16 5 33t5 33z" />
    <glyph glyph-name="dollar" unicode="$" 
d="M523 213q2 -7 2 -19t-2 -18q-1 -3 -1 -9q-2 -8 -3 -15t-3 -14q-5 -15 -10 -28.5t-13 -25.5q-3 -5 -6.5 -9l-7.5 -9l-11 -13t-12 -12q-17 -13 -36.5 -24t-42.5 -19q-8 -3 -16 -5l-16 -4q-6 -2 -11.5 -2t-10.5 -2q-13 -7 -16 -19q-4 -11 -2 -25t-2 -25q-3 -7 -8.5 -9
t-13.5 -4q-6 -1 -13 1q-9 3 -12 8q-4 6 -4.5 16.5t-0.5 20.5v14q-4 14 -11 19q-6 4 -14 5t-16 3q-11 4 -22 6.5t-22 7.5q-42 19 -71.5 48t-47.5 72q-3 8 -6 17.5l-6 18.5q-2 5 -2 8.5t-1 8.5q-2 6 -2.5 14t1.5 13q3 7 11 10q4 2 8 1.5t9 0.5q11 2 24.5 0.5t18.5 -6.5
q5 -4 7 -10t4 -14q5 -22 12 -37q8 -18 21.5 -32.5t28.5 -25.5q4 -3 7.5 -5t7.5 -4q4 -3 12 -6.5t16.5 -6t16.5 -1.5t12 7t4 14.5v18.5v167v26t-5 21q-4 6 -12 9.5t-17 6l-18 5t-16 5.5l-28.5 10.5t-26.5 13.5q-12 6 -24 15q-2 2 -4 3.5t-4 3.5q-4 3 -8.5 7t-7.5 9
q-15 21 -26 50q-2 8 -3 17t-3 17q0 11 -1 16q-2 10 0 18q1 5 1 15q2 6 2 12.5t2 11.5l3.5 14t3.5 12q14 34 34 59t49 43q13 8 27.5 14.5t31.5 11.5q11 3 21.5 4.5t18.5 7.5q11 8 9.5 22t3.5 26q5 9 13 12q2 1 4 1t4 1q22 0 28 -14q2 -3 1.5 -6.5t0.5 -7.5v-11l3.5 -14
t7.5 -11q5 -4 12 -5.5t15 -4.5q8 -2 16.5 -5t16.5 -7q35 -15 58.5 -41t40.5 -58q5 -11 9 -21.5t8 -22.5q2 -4 3.5 -9.5t-0.5 -10.5q-1 -6 -8 -10q-4 -3 -13 -4t-19 -0.5t-18.5 2t-11.5 3.5q-10 6 -13.5 19.5t-9.5 23.5q-10 16 -21.5 29t-27.5 22q-11 6 -25 9.5t-20 -11.5
q-4 -8 -3.5 -24t0.5 -28v-112v-31t5 -25q7 -12 21 -15t28 -8l39.5 -13.5t35.5 -17.5q28 -17 49.5 -41.5t32.5 -59.5q2 -8 3.5 -15.5t3.5 -15.5v-10zM237 424q14 4 14 21.5v34.5v116q0 20 -2 35t-22 15q-2 -2 -4.5 -1.5t-4.5 -0.5q-7 -2 -13.5 -4.5t-11.5 -6.5
q-19 -11 -32 -27t-20 -39q-2 -5 -2.5 -11t-2.5 -12q-2 -8 -1 -18t3 -17q2 -12 4 -19q8 -19 21 -31t30 -21q14 -8 28 -12q3 -1 7 -2.5t9 0.5zM434 169q2 8 2 19.5t-2 17.5q-2 8 -3 14.5t-3 12.5q-9 21 -24 34t-35 23l-21.5 10.5t-25.5 5.5q-1 -1 -4 -1q-6 -2 -8 -6
q-6 -9 -5.5 -26.5t0.5 -31.5v-119q0 -16 0.5 -31t9.5 -22q2 -2 6 -3.5t9 -0.5q4 1 7.5 1t7.5 2q31 9 51.5 26.5t31.5 46.5q2 7 3 14t3 14z" />
    <glyph glyph-name="percent" unicode="%" horiz-adv-x="1000" 
d="M700 569q-20 -29 -41.5 -57t-41.5 -57l-121 -167.5l-121 -167.5l-34 -47.5l-34 -46.5l-16 -23t-19 -19q-4 -2 -12.5 -3.5t-18.5 -1.5t-18.5 1t-12.5 4q-3 2 -4.5 6.5t0.5 9.5q4 8 9.5 15.5t10.5 15.5l49 67t48 67l32 43l32 43l73 102l74 102l28.5 39l28.5 39l43 60l44 60
l12.5 18l13.5 18q4 6 8.5 12t9.5 11q7 5 15 7q2 1 5.5 0.5t5.5 1.5q12 0 27 -0.5t18 -9.5q2 -3 1 -7t-3 -6q-4 -8 -8 -14t-9 -12l-37.5 -51.5zM243 309q-5 2 -10 1t-10 1q-11 2 -20.5 4.5t-19.5 7.5q-33 14 -51 39.5t-29 61.5q-3 8 -4 16.5t-3 16.5q-1 5 -1 13q-1 3 -1 6.5
t-1 6.5v10q-1 5 -1 12.5t1 12.5v11q2 5 1.5 9.5t0.5 8.5t1 7.5t1 7.5q3 11 4.5 22.5t6.5 22.5q14 34 32.5 55.5t53.5 35.5q8 3 17 4.5t19 3.5q3 1 11 0.5t10 1.5q56 1 90.5 -22t51.5 -61q4 -9 7 -19t5 -20q2 -3 1.5 -6t0.5 -6q3 -11 4 -24.5l2 -27.5q0 -5 0.5 -11t-0.5 -11
t-1 -9.5v-9.5q-1 -4 -0.5 -8t-1.5 -9q-2 -11 -3.5 -21t-4.5 -20q-13 -36 -33 -63t-55 -41q-8 -3 -17 -5l-18 -4q-5 -1 -9 -0.5t-8 -0.5q-10 -2 -19 0zM187 402q4 -7 8 -12.5t10 -10.5q5 -4 10.5 -7.5t12.5 -5.5q4 -2 7.5 -1.5t7.5 -1.5q3 0 8 -0.5t8 0.5l15 3q25 8 37 25
q8 10 14 26q8 18 12 45.5t3 56t-6 54.5t-15 42q-12 20 -30 30q-8 5 -18 6.5t-21 1.5q-2 -1 -4.5 -0.5t-4.5 -0.5q-5 -1 -9 -1.5t-8 -2.5q-18 -8 -29.5 -24t-18.5 -36q-6 -19 -8.5 -45t-1.5 -52.5t6.5 -50t14.5 -38.5zM907 203q1 -5 1 -18t-2 -18t-1 -10.5t0 -10.5
q-4 -14 -5.5 -27t-6.5 -24q-14 -35 -33 -58.5t-54 -37.5q-8 -3 -17 -4.5t-17 -3.5q-5 -1 -10 -1t-10 -1q-3 -1 -10 -0.5t-10 1.5q-6 2 -11.5 1.5t-10.5 1.5q-9 2 -17.5 4.5t-16.5 6.5q-32 14 -50 39.5t-30 60.5q-2 8 -3 17t-3 17q-1 3 -1 6.5v6.5q-2 8 -2 16v9q-2 10 0 20
v12q1 5 1 9.5t1 8.5t1 7.5t1 7.5l4 22.5t6 21.5q14 33 32.5 55.5t51.5 36.5q8 4 17.5 5.5t19.5 3.5q5 0 9.5 0.5t9.5 0.5q57 2 92.5 -20.5t52.5 -60.5q5 -10 8 -20l6 -21q1 -4 1 -6.5t1 -6.5q2 -7 2 -15t2 -16v-9t1 -9zM833 174q1 5 1.5 15t-1.5 15q-2 6 -0.5 11.5
t-0.5 11.5q-1 3 -1 7t-1 8q-2 8 -3.5 15.5t-3.5 15.5q-3 6 -5 12t-6 12q-10 17 -26 27q-8 5 -19 7t-25 2q-2 -1 -5 -0.5t-6 -0.5q-5 -2 -10 -3.5t-9 -3.5q-19 -11 -28.5 -29t-16.5 -41q-4 -13 -4 -26.5t-2 -29.5q-1 -5 -1.5 -12t1.5 -12v-11q0 -6 0.5 -11.5t1.5 -11.5
q1 -5 1.5 -11t2.5 -11q5 -19 12 -35t21 -26q13 -10 28 -14q3 -1 5.5 -0.5t5.5 -0.5q2 0 6 -0.5t7 0.5q4 1 8 1t8 2q24 8 39 27q12 18 18 41q2 7 3 14.5t3 15.5q0 6 1 9v5.5t1 5.5v10z" />
    <glyph glyph-name="ampersand" unicode="&#x26;" horiz-adv-x="630" 
d="M623 20q2 -5 0.5 -10t-6.5 -7q-6 -3 -15 -2.5t-17 0.5q-11 0 -23 -0.5t-21 1.5q-5 2 -9 5t-9 6q-4 3 -7.5 8t-7.5 9q-5 7 -11.5 13t-11.5 13t-10.5 12.5t-15.5 7.5q-8 2 -14.5 -4.5l-10.5 -10.5q-23 -24 -53 -41q-14 -8 -30.5 -13.5t-33.5 -10.5q-6 -2 -12 -2t-12 -2
q-4 0 -7 -0.5t-7 -0.5q-8 -2 -23.5 -2.5t-23.5 1.5q-4 1 -12 1l-13.5 2l-13.5 2q-21 5 -39.5 11t-35.5 17q-49 30 -73 91q-2 6 -3.5 12t-3.5 13q-4 17 -4 45v20q2 9 3 18.5t4 17.5q5 15 11.5 29t15.5 26q5 7 10 12.5t10 12.5q3 4 7 7.5t8 6.5q4 2 7.5 6t7.5 7q16 12 36 25
q8 5 19 11t15 15q4 10 -2.5 20t-10.5 15q-14 19 -26.5 39t-20.5 46q-2 6 -3 13t-3 15q-2 12 0 30.5t5 27.5q2 5 2.5 9t2.5 9q22 54 77 77q10 5 21 7l23 4q6 1 12 1.5t12 0.5q57 2 101.5 -22t61.5 -63q5 -12 8 -22q1 -5 2 -8.5t2 -8.5v-9q1 -3 1 -6.5v-6.5q0 -26 -8 -48
q-5 -17 -13.5 -31t-18.5 -28q-2 -3 -5.5 -6t-6.5 -7q-9 -10 -18 -17q-5 -4 -9 -8t-9 -8q-8 -5 -17 -11.5t-14 -14.5q-5 -7 -2 -15t6 -13q3 -4 7 -7.5t7 -8.5q9 -13 19.5 -24.5t19.5 -24.5q4 -5 8 -9t8 -9q5 -8 15 -19.5t20 -14.5q5 -1 7.5 2t4.5 5q5 6 6.5 13.5t4.5 16.5
q1 5 2 12.5t2.5 15t3.5 13.5t6 9q6 5 14.5 6t19.5 1t19.5 -1.5t12.5 -7.5q6 -8 4 -22t-4 -23q-2 -7 -2 -13.5t-2 -13.5q-5 -14 -9 -27.5t-10 -27.5q-2 -6 -7.5 -18t-3.5 -22q4 -14 12.5 -22t16.5 -18q12 -16 25.5 -30t25.5 -30q2 -4 5.5 -7t6.5 -6q5 -7 11 -13t9 -14z
M208 583q-3 -10 -2.5 -22t3.5 -21q6 -20 15.5 -35t20.5 -30l13 -17t18 -11q5 -1 9 0.5t7 3.5q8 4 13.5 8.5t12.5 9.5q2 1 6 5q28 22 41 60q5 14 4 30t-6 27q-9 22 -28 34.5t-49 12.5q-2 -1 -4 0t-4 0l-18 -3q-30 -11 -45 -34l-3.5 -9zM388 120q5 5 11 13t3 19t-11 19.5
t-14 16.5q-10 13 -20.5 25t-19.5 25q-3 4 -6.5 7t-6.5 7q-10 13 -20 24.5t-20 24.5q-3 4 -6.5 7t-5.5 6q-6 8 -13 15.5t-20 7.5q-2 -1 -4.5 -1t-4.5 -1q-3 -2 -7 -3.5t-7 -3.5q-29 -18 -53 -41.5t-35 -59.5q-2 -5 -2.5 -11t-2.5 -12q-3 -14 -0.5 -32t7.5 -27
q13 -31 34 -48.5t54 -28.5q16 -5 39 -6t41 4q33 9 58 25q4 3 7.5 6.5t7.5 5.5q9 8 17 17z" />
    <glyph glyph-name="quotesingle" unicode="'" horiz-adv-x="278" 
d="M133 713q10 0 19 -1t14 -6q8 -10 7 -29.5t-1 -36.5v-123v-29t-5 -23q-4 -5 -9.5 -6t-11.5 -3q-9 -2 -20.5 1t-14.5 8q-6 9 -5.5 26.5t0.5 32.5v121q0 13 -1 29.5t3 25.5t17 12q2 1 4 0.5t4 0.5z" />
    <glyph glyph-name="parenleft" unicode="(" horiz-adv-x="259" 
d="M223 731q11 1 22 -2.5t8 -14.5q-2 -8 -5.5 -15t-7.5 -13q-7 -11 -12 -22t-11 -22q-13 -26 -24 -55l-21 -58q-5 -15 -8.5 -30.5t-7.5 -31.5q-4 -12 -5.5 -25t-4.5 -26q-2 -6 -2 -12t-1 -12q-2 -5 -1.5 -10.5t-0.5 -10.5q-2 -5 -1.5 -10.5t-1.5 -10.5v-7q-1 -3 -0.5 -6.5
t-0.5 -7.5q-2 -8 -1.5 -18.5t0.5 -19.5q0 -6 -0.5 -13t-0.5 -13v-10q1 -11 1 -21t1 -21q1 -5 0.5 -11t0.5 -11q1 -4 0.5 -8t1.5 -8l6 -51q4 -17 6.5 -33.5t6.5 -31.5q2 -4 2 -7t1 -7q4 -11 6.5 -21l5.5 -21q11 -31 22.5 -60t25.5 -56q3 -6 5.5 -12.5t6.5 -12.5l8 -13.5
t8 -14.5q2 -4 3.5 -10.5t-1.5 -11.5q-4 -5 -10 -5t-13 -2q-6 0 -12 2q-17 5 -23 14.5t-14 23.5q-42 67 -76 147q-7 16 -13 32.5l-12 33.5q-2 8 -4.5 16t-4.5 16q-5 14 -7 28.5t-5 28.5q-2 11 -3.5 23t-3.5 24q-2 5 -1.5 10t-0.5 10q0 5 -0.5 11t-0.5 12q-1 2 -0.5 5.5
t0.5 6.5q-2 5 -1.5 11t0.5 11t-0.5 11t1.5 10v22q1 5 0.5 9.5t0.5 9.5l6 48q2 7 2.5 14t2.5 14q5 17 8 34t8 34l13.5 41t14.5 39l8 18l8 18q2 3 3.5 6t2.5 6q11 23 23 44t26 41l12 18.5t14 15.5q3 2 13 6q2 1 4.5 0.5t4.5 0.5z" />
    <glyph glyph-name="parenright" unicode=")" horiz-adv-x="259" 
d="M26 732q13 0 21.5 -3.5t14 -9.5t10 -13.5l9.5 -15.5q17 -27 32 -55.5t29 -59.5l10 -23l10 -23q6 -15 11 -31l10 -32q6 -17 9 -34.5t8 -35.5q3 -13 4 -26.5t4 -26.5q1 -5 0.5 -10t0.5 -10q1 -6 1 -12v-12q1 -2 0.5 -6t0.5 -7q1 -5 0.5 -10.5t-0.5 -10.5t0.5 -10.5
t-0.5 -10.5v-10.5t-1 -10.5t-0.5 -10t-0.5 -10l-6 -48q-2 -8 -3 -16t-3 -16q-4 -17 -7.5 -34.5t-8.5 -34.5l-14 -40t-15 -39q-4 -10 -8.5 -19.5l-9.5 -19.5q-11 -25 -24.5 -47.5l-27.5 -44.5q-9 -13 -17 -23t-26 -14h-9q-10 0 -18.5 3.5t-4.5 15.5q4 13 13 25q2 3 2.5 5.5
t2.5 4.5q5 9 9.5 18.5l8.5 18.5q3 7 6.5 13.5l6.5 12.5q8 18 14.5 36.5l13.5 37.5q6 19 10.5 38l9.5 39q4 14 5.5 28.5t4.5 28.5q2 6 2 11.5t1 11.5q1 7 1.5 14t1.5 15q1 5 0.5 10.5t0.5 10.5t0.5 9.5t0.5 9.5q1 4 0 8.5t1 8.5q1 5 0.5 11.5t-0.5 12.5v41q-1 11 -1.5 20.5
t-1.5 20.5q-2 6 -1 12.5t-1 12.5q-2 5 -1.5 10t-1.5 10q-2 12 -3.5 24t-3.5 24q-2 8 -3.5 17t-3.5 17q-5 17 -9.5 34t-9.5 34q-7 20 -15 40l-16 40q-2 5 -5 10t-5 10q-7 16 -14 30t-15 28q-2 4 -5 11.5t0 12.5q2 3 6 4.5t8 3.5h5z" />
    <glyph glyph-name="asterisk" unicode="*" horiz-adv-x="352" 
d="M169 712q11 0 18 -2.5t11 -10.5q5 -11 2.5 -27.5t0.5 -29.5v-10q1 -6 2 -11t5 -8q5 -3 12 -3t12 2q13 5 25 9t24 9q21 8 31 -6q9 -11 6.5 -21t-13.5 -16t-23.5 -9.5t-24.5 -8.5q-8 -4 -15.5 -7t-10.5 -11q-2 -7 1 -13t6 -10q5 -8 11 -15.5t11 -15.5q3 -5 7 -9.5t6 -9.5
q5 -12 -2.5 -21t-15.5 -12q-11 -3 -17 2.5l-11 10.5q-7 11 -14.5 20.5t-14.5 19.5l-8 10t-11 7q-8 2 -14 -4t-9 -10q-6 -8 -12 -17t-13 -17l-6 -10.5t-8 -8.5q-12 -8 -25 -1q-11 7 -15 15q-2 5 -0.5 10.5t3.5 9.5t4.5 7t4.5 6l10 15.5l10 15.5q3 4 7 10.5t2 14.5q-2 7 -8 10
l-12 6q-12 5 -26 9t-25 11q-4 2 -7 4t-5 5q-4 6 -2 14t4 13q4 5 11.5 8t16.5 0q13 -4 24.5 -8.5l23.5 -9.5q6 -2 15.5 -3t14.5 5t5.5 16.5t0 22t-0.5 23t3 20.5q3 10 12 14q2 1 3 0.5t3 0.5z" />
    <glyph glyph-name="plus" unicode="+" horiz-adv-x="600" 
d="M293 505q10 0 19.5 -1t13.5 -7q6 -8 6 -21v-27v-104v-26.5t5 -21.5q6 -9 19 -10t27 -1h111q16 0 31 -0.5t21 -10.5q3 -4 4 -11.5t0 -15t-3 -14t-5 -8.5q-8 -6 -21 -6h-27h-105q-14 0 -29.5 -0.5t-21.5 -8.5t-6 -22v-28v-105v-26t-6 -21q-3 -5 -8.5 -5.5t-12.5 -2.5
q-2 -1 -6 -0.5t-6 0.5q-7 2 -10.5 2t-8.5 4q-8 5 -8 20.5v29.5v105q0 14 -0.5 27.5t-5.5 21.5q-7 8 -21.5 8.5t-28.5 0.5h-112q-15 0 -28 1t-18 10q-3 4 -4 11.5t0 15t3 14t5 8.5q8 6 21 6h27h105q14 0 29 0.5t22 8.5q6 8 6 23.5v29.5v97q0 11 -0.5 24.5t2.5 21.5
q5 10 15 13q6 0 10 1z" />
    <glyph glyph-name="comma" unicode="," horiz-adv-x="278" 
d="M109 110h42h13.5t11.5 -2q7 -4 10 -8q4 -5 4.5 -13t0.5 -17v-48q0 -48 -12 -82t-39 -55l-13.5 -9.5t-15.5 -8.5q-2 -1 -6 -2.5t-9 -0.5q-9 3 -11 14.5t3 19.5q3 7 9.5 12.5l12.5 10.5q7 5 12.5 14.5t9.5 18.5q2 3 5 11.5t1 14.5q-3 14 -12 18q-8 3 -18 3t-17 5
q-9 7 -9 28v37q0 8 0.5 15.5t3.5 12.5q6 8 14 9q2 1 4.5 1t4.5 1z" />
    <glyph glyph-name="hyphen" unicode="-" horiz-adv-x="389" 
d="M76 316h181q8 0 18.5 0.5t21 0.5t19 -1.5t13.5 -5.5q5 -3 7 -11q1 -3 1.5 -8.5t0.5 -12t-0.5 -12.5t-1.5 -9q-2 -10 -7 -14q-10 -7 -32.5 -6t-39.5 1h-133q-14 0 -33 -1t-28 3q-7 3 -11 11q-3 7 -3 24.5t3 25.5q1 2 1.5 4t2.5 4q2 3 6.5 4t8.5 3h5z" />
    <glyph glyph-name="period" unicode="." horiz-adv-x="278" 
d="M110 110q9 0 20 0.5t21.5 0t19.5 -2t14 -5.5q2 -2 3.5 -6l3.5 -9v-5q1 -5 0.5 -10.5t-0.5 -10.5v-31.5t-8 -24.5q-7 -5 -17.5 -5h-22.5h-29.5t-23.5 6q-4 3 -6 10.5t-2.5 17t0 19t0.5 16.5v13t2 11q4 11 14 14q3 0 11 2z" />
    <glyph glyph-name="slash" unicode="/" horiz-adv-x="333" 
d="M302 730q12 1 22.5 0t14.5 -9q5 -8 -0.5 -20t-7.5 -18q-10 -23 -18.5 -47.5t-18.5 -48.5q-11 -24 -20 -49t-20 -50l-48.5 -122.5t-49.5 -122.5l-21.5 -55l-21.5 -54q-11 -25 -19.5 -50t-19.5 -50q-5 -11 -9 -23.5t-13 -18.5q-7 -5 -22.5 -7t-26.5 3q-6 3 -8 8.5t-1 12
t4 13t5 11.5q14 33 26.5 67t26.5 68l61.5 155l61.5 155q10 23 18.5 46l17.5 46q12 27 22 54.5t22 54.5q5 11 9.5 25t13.5 20q3 3 13 5q2 1 3.5 0.5t3.5 0.5z" />
    <glyph glyph-name="zero" unicode="0" 
d="M513 340q0 -8 0.5 -16.5t-1.5 -15.5v-16v-11q-2 -10 -2 -20.5t-2 -20.5v-10q-3 -14 -4 -27.5t-5 -26.5l-4 -16.5l-4 -16.5l-7.5 -19.5t-7.5 -18.5q-10 -22 -26.5 -43t-35.5 -34q-5 -4 -11.5 -7.5t-12.5 -7.5q-8 -5 -19 -8l-21 -6q-11 -4 -22 -5t-23 -3q-4 -1 -8.5 -0.5
t-8.5 -0.5t-11 -1t-10 1q-5 2 -9 1t-7 0h-6q-6 2 -12.5 2.5t-13.5 1.5q-17 5 -32 10t-29 13q-5 4 -10.5 6.5t-10.5 6.5q-24 18 -40 44t-28 57q-6 14 -9 28.5t-7 30.5q-2 11 -3 22t-3 22q-1 4 -0.5 8t-0.5 8q-1 5 -1 10.5v10.5q-2 5 -1 10.5t0 10.5q-1 4 0 9t-1 10
q-2 7 -1 15.5t1 16.5q0 9 -1 20.5t1 19.5v19l3 42l2 19.5l2 19.5q2 5 1.5 10.5t1.5 10.5q5 17 8 33.5t10 31.5q19 46 44.5 75t71.5 49q13 5 26.5 7t27.5 5q7 1 13 1t13 1q83 2 134 -29.5t76 -88.5q5 -12 9 -25t9 -27q2 -8 3.5 -16.5t3.5 -16.5q3 -11 3.5 -22t2.5 -22
q2 -5 1.5 -9t0.5 -8q1 -5 0.5 -10.5t0.5 -10.5v-9q2 -6 0.5 -13.5t0.5 -13.5q1 -3 1 -7.5v-8.5v-31zM410 185q10 32 12 73t2 82q0 43 -2 84t-9 77t-21.5 64.5t-39.5 46.5q-16 11 -36 16.5t-49 5.5q-2 -2 -7 -1.5t-8 -0.5l-14.5 -3.5t-13.5 -4.5q-27 -12 -43.5 -33.5
t-27.5 -49.5q-5 -11 -7.5 -23.5t-5.5 -25.5q-2 -5 -2 -10.5t-1 -10.5l-2 -18.5l-2 -19.5q0 -8 -0.5 -16.5t-0.5 -16.5v-12q-1 -3 -1 -7v-9v-30q0 -8 -0.5 -16.5t1.5 -15.5v-18q0 -2 -0.5 -5.5t0.5 -5.5q1 -10 1.5 -19.5t1.5 -20.5q3 -12 3.5 -24.5t4.5 -23.5q8 -30 17.5 -53
t28.5 -43q21 -20 53 -30q4 -2 7.5 -1.5t8.5 -1.5q4 -1 14.5 -2t16.5 1q7 2 14 2.5t13 2.5q20 6 36 17q3 2 5 4l4 4q4 2 10 8q10 14 17 26t14 29q3 7 4.5 14t3.5 15z" />
    <glyph glyph-name="one" unicode="1" 
d="M317 708q10 0 19 -1.5t13 -6.5q6 -8 6 -20.5v-26.5v-100v-426v-78q0 -10 0.5 -20.5t-3.5 -16.5q-5 -8 -14.5 -9.5t-22.5 -1.5h-15l-14 3.5t-10 7.5t-4 15.5v19.5v73v356q-2 9 -2.5 15.5t-6.5 11.5q-7 5 -17.5 5.5t-22.5 0.5h-76q-17 0 -33 0.5t-22 11.5q-2 3 -2 6.5
t-1 8.5q-2 12 1.5 22t10.5 14q8 5 24 5t27 3q5 1 11 1.5t12 2.5q15 5 29 10.5t27 13.5q14 9 24 21t19 26q6 10 9.5 22t9.5 21q5 6 14 8q2 1 5 1t5 1z" />
    <glyph glyph-name="two" unicode="2" 
d="M263 708q69 1 120.5 -24t78.5 -67q5 -8 9 -17.5t9 -19.5q4 -10 6 -20l4 -21q2 -5 1 -9t1 -9q1 -5 1 -16.5t-1 -17.5q-2 -6 -1.5 -12t-1.5 -12q-4 -14 -7 -27t-8 -25q-6 -14 -13.5 -25l-15.5 -22q-2 -2 -3.5 -4t-3.5 -4q-12 -16 -27 -29t-32 -25l-59 -41l-45.5 -27
l-44.5 -27q-25 -17 -47.5 -36t-38.5 -45q-4 -6 -7 -11.5t-6 -13.5q-2 -7 -1 -12q2 -7 7 -11q5 -3 12.5 -3.5t15.5 -0.5h50h187h44q9 0 17 -0.5t13 -4.5t8.5 -14.5t1.5 -20.5v-9q-2 -7 -4 -12t-7 -8q-5 -4 -14 -4h-18h-60h-234h-71q-8 0 -18 -0.5t-17 1.5q-21 7 -13 36
q1 4 0.5 7.5t1.5 8.5q2 8 4 17t5 17q16 49 40 83q18 25 41 45.5t48.5 38.5t53 34.5t53.5 34.5l21.5 15l21.5 15q4 3 7.5 6.5t7.5 5.5q14 11 25 25q2 3 5 5.5t5 5.5q8 10 13.5 20t10.5 22q3 7 4.5 15t3.5 16q0 3 0.5 6t0.5 6q2 7 1.5 19.5t-2.5 19.5q-2 8 -3.5 15.5
t-4.5 15.5q-11 24 -29.5 40.5t-44.5 27.5q-7 2 -14 3.5t-15 3.5t-21.5 2t-21.5 -2q-6 -1 -11 -1t-10 -2q-10 -4 -18.5 -8t-16.5 -9q-3 -2 -5.5 -5t-5.5 -5q-2 -2 -5 -4.5t-5 -4.5l-9.5 -13.5l-9.5 -13.5q-6 -9 -9.5 -20.5t-7.5 -22.5t-5 -28.5t-6 -25.5t-15 -9t-22 -1
q-4 0 -8 -0.5t-7 0.5q-5 2 -9.5 2t-8.5 2q-9 6 -9 27v8q1 6 1.5 12.5t1.5 12.5q2 11 4 20.5t6 18.5q2 7 4 12.5l4 11.5q12 26 31.5 49t42.5 37q11 8 23.5 13l25.5 10q11 5 23 6.5t25 4.5q7 0 13 0.5t13 1.5z" />
    <glyph glyph-name="three" unicode="3" 
d="M254 708q163 3 210 -111q10 -23 13.5 -57.5t-5.5 -62.5q-9 -26 -24 -45q-2 -4 -5 -6.5t-5 -5.5q-3 -4 -6 -7.5t-7 -5.5q-5 -5 -10.5 -9t-9.5 -10q-4 -4 -3 -10q1 -5 6 -9t11.5 -7.5l12.5 -6.5t10 -6q32 -22 51 -62q4 -9 6.5 -18.5t4.5 -18.5q1 -5 1.5 -9.5t1.5 -9.5
t0 -10t1 -10q1 -5 1 -12t-2 -12v-15q-2 -8 -3.5 -15.5t-3.5 -14.5l-5.5 -17t-6.5 -16q-2 -6 -5.5 -11.5t-7.5 -10.5q-20 -31 -50 -51.5t-69 -33.5q-12 -4 -25.5 -5.5t-27.5 -4.5q-7 -1 -13.5 -1t-13.5 -1q-4 -1 -11.5 -1t-10.5 1q-5 1 -8.5 1h-8.5q-10 2 -20 3t-19 3
q-11 3 -21.5 5.5t-21.5 7.5q-37 16 -63 40.5t-42 61.5q-4 9 -7 19l-6 21q-2 5 -2 10.5t-2 11.5t-2 16t3 15q1 3 3 5l4 4q4 2 12.5 3t17.5 1t17.5 -1t12.5 -2q2 -2 4 -2.5t4 -2.5q7 -9 8.5 -23t5.5 -25l10 -23.5t13 -21.5q2 -3 4.5 -5t4.5 -5q4 -6 7 -9q4 -3 7.5 -6t8.5 -6
q9 -6 19.5 -10l21.5 -8q15 -5 40 -6t42 4l14.5 3.5t13.5 3.5q28 12 48.5 30t32.5 46q3 7 4.5 14.5t3.5 15.5q4 14 2 32.5t-6 29.5q-13 38 -36.5 58t-62.5 32q-11 3 -23.5 4t-25.5 1q-16 0 -28 1t-17 12q-2 3 -2 7v9q-1 10 0.5 19t7.5 13q4 3 8.5 4t10.5 2q2 1 5 0.5t5 0.5h9
q11 2 20.5 2.5t18.5 3.5q32 11 51 29t30 50q3 10 4.5 25.5t-1.5 28.5q-2 7 -3.5 13.5t-4.5 12.5q-10 24 -29 38t-45 22q-6 2 -12 2t-13 2q-8 2 -19 2t-19 -2q-5 -2 -9.5 -2t-9.5 -2q-18 -5 -33.5 -14.5t-26.5 -23.5q-9 -12 -16 -26t-13 -31q-3 -11 -4 -23.5t-7 -20.5
q-2 -4 -12 -8q-4 -1 -12 -1.5t-17 0t-16.5 1.5t-10.5 3q-4 3 -7 11t-1 17q1 5 1.5 10.5t1.5 11.5q3 10 5.5 20t6.5 18q5 11 9 21.5t10 20.5q33 54 94 79q12 5 25.5 7t27.5 5q6 1 12.5 1t12.5 1z" />
    <glyph glyph-name="four" unicode="4" 
d="M505 234q7 -5 8.5 -14t1.5 -21q0 -5 -0.5 -10t-2.5 -9q-3 -9 -11.5 -11.5t-19 -2.5t-21.5 0.5t-21 -2.5q-14 -3 -18 -16q-2 -7 -2 -16.5v-18.5v-63v-22t-4 -17t-9.5 -7.5t-13.5 -3.5h-13q-12 0 -21 1.5t-14 9.5q-3 5 -3 14.5v19.5v69q0 16 -1.5 29.5t-11.5 18.5
q-5 2 -13.5 3t-18 1h-19h-16.5h-151q-9 0 -20.5 -0.5t-22.5 -0.5t-20 2t-12 7q-5 7 -5 19v23v18q4 17 11 28t16 23l24 36l87.5 124.5l87.5 123.5l31 44.5l31 44.5l10 13.5t10 14.5l4.5 6.5t5.5 5.5q4 3 8 4.5l9 3.5q2 0 4.5 -0.5t4.5 1.5q13 0 24 -1t16 -9q4 -5 4.5 -14
t0.5 -19v-364q0 -7 -0.5 -14.5t0.5 -14.5v-7q2 -5 3 -10.5t5 -8.5q7 -5 17.5 -5.5t21.5 -0.5t21.5 -0.5t17.5 -4.5zM334 247q8 11 7.5 34t-0.5 41v165q0 9 0.5 21t-1.5 20v10q0 9 -3 17q-1 2 -2 2.5t-3 2.5q-2 1 -6 1q-2 -2 -3.5 -2.5t-3.5 -1.5q-6 -5 -12 -14l-11 -16
q-10 -14 -19 -28.5t-19 -28.5l-35.5 -52l-35.5 -52l-15 -21l-14 -20l-9.5 -15l-9.5 -15q-5 -6 -9.5 -12.5t-8.5 -14.5q-4 -6 -5 -13.5t7 -11.5q7 -5 22.5 -4.5t26.5 0.5h112h29t21 8z" />
    <glyph glyph-name="five" unicode="5" 
d="M147 695h240h43q8 0 15 -0.5t12 -2.5q7 -3 11 -12q2 -3 2 -7.5v-9.5q1 -11 -0.5 -21t-7.5 -14q-9 -7 -27 -6.5t-33 0.5h-133h-33h-8.5t-8.5 -1h-14q-11 -3 -16 -7.5t-7 -11t-3 -14.5t-4 -18q-5 -20 -8 -41t-8 -41q-2 -7 -2 -13.5t-2 -13.5q-1 -3 -1.5 -7.5t0.5 -8.5
q2 -5 5.5 -8.5t11.5 -1.5q6 2 12 5.5t12 6.5q6 2 10 3q19 8 41.5 11t46 2.5t45.5 -5t40 -12.5q5 -2 9.5 -4t9.5 -5q35 -21 56.5 -46t38.5 -65q5 -11 7 -22t5 -23q1 -3 1 -9q2 -6 2 -13.5t2 -13.5v-11q1 -5 1 -14t-2 -14q-2 -6 -1 -11.5t-1 -10.5q-4 -16 -7 -30t-9 -27
q-16 -37 -44 -67t-64 -46q-17 -8 -40 -15q-11 -4 -23 -5t-24 -4q-5 -2 -11 -0.5t-12 -0.5q-10 -2 -20 0h-9q-5 2 -11.5 1.5t-11.5 1.5q-4 1 -7 1t-7 1l-18 4t-17 6q-34 14 -58 31.5t-44 45.5q-15 23 -23 48q-2 5 -2 9.5t-2 9.5q-2 6 -2.5 16t3.5 15q5 8 16 9t23 1h11.5
t10.5 -2q9 -2 14 -8q7 -9 9.5 -21.5t8.5 -21.5q19 -34 52 -54q10 -6 21.5 -9.5l23.5 -7.5q17 -5 41.5 -3.5t39.5 6.5q37 12 58.5 32.5t35.5 55.5q5 10 6.5 21t4.5 23q0 4 0.5 7.5t0.5 7.5q1 3 0.5 7t-0.5 8q0 26 -6 49q-11 35 -31 59.5t-52 38.5l-11.5 4t-12.5 4
q-5 2 -11.5 2.5t-13.5 2.5h-10q-4 2 -10.5 2t-11.5 -2h-6.5t-7.5 -1q-8 -2 -16 -3.5t-16 -4.5q-24 -10 -46 -27q-9 -7 -17 -14.5t-20 -11.5q-9 -3 -27.5 -2t-24.5 5q-5 4 -7.5 12t-0.5 17q3 12 4.5 24.5t4.5 24.5q2 4 1.5 7.5t1.5 8.5q2 9 3 18.5t4 18.5q1 6 1.5 12t2.5 12
q5 20 7.5 41.5t7.5 41.5q3 10 4 20t3 20q1 3 1 8q3 11 4.5 21.5t4.5 21.5q2 8 3 14.5t5 11.5q2 3 6 4.5l9 3.5q6 0 8 1z" />
    <glyph glyph-name="six" unicode="6" 
d="M513 289q3 -12 5 -28t2 -33t-2 -33t-5 -28l-7 -25t-8 -22q-27 -64 -83 -97q-8 -6 -17 -9.5l-20 -7.5q-11 -5 -23.5 -7.5l-26.5 -5.5q-6 -2 -11.5 -1t-12.5 -1q-2 -1 -5 -0.5t-5 -0.5q-3 0 -10 -0.5t-10 0.5q-4 1 -8.5 0.5t-8.5 0.5q-9 2 -18 2.5t-18 2.5q-9 3 -18 5
t-17 6q-24 11 -45 26.5t-36 35.5q-12 17 -21 35t-18 38q-4 10 -6.5 20.5t-5.5 21.5q-4 14 -5 28t-4 28q-1 11 -1.5 20.5t-2.5 19.5q0 3 0.5 6t-0.5 5v14q-2 6 -1.5 13.5t0.5 14.5v10t1 10v25q1 3 0.5 7t0.5 8q2 11 3 22.5l2 22.5q4 15 5.5 29.5t5.5 28.5q9 30 19 57t25 50
q20 32 49 56t68 37q11 4 22.5 5.5t23.5 4.5q7 1 13 1t13 1q70 2 115 -23t69 -70q11 -23 20 -55q2 -7 0.5 -14.5t-5.5 -10.5q-3 -3 -12 -4.5t-19.5 -2t-20 0.5t-13.5 4q-11 7 -15.5 22t-11.5 26q-19 31 -56 46q-7 3 -14.5 4t-15.5 3q-5 1 -13.5 1t-13.5 -1q-4 -2 -7 -1t-7 0
l-15.5 -4t-14.5 -5q-38 -16 -57.5 -42t-35.5 -63q-3 -8 -4.5 -16t-4.5 -16q-3 -11 -4.5 -23t-4.5 -24q-2 -5 -1.5 -10t-1.5 -10q-1 -6 0 -15.5t3 -11.5q2 -4 6.5 -4t8.5 2q7 4 12 9t12 10l4.5 4.5t5.5 4.5q23 16 55 27q7 2 14 3t15 3q4 0 7 1t7.5 0.5t7.5 1.5h11
q2 0 6.5 0.5t7.5 -0.5q5 -1 10.5 -0.5t10.5 -0.5q11 -3 21.5 -4t20.5 -5q42 -14 69 -36.5t48 -57.5q8 -14 13 -29.5zM430 202q1 5 1 9.5v9.5q0 31 -8 57q-2 6 -3.5 11.5t-3.5 10.5q-22 49 -69 70q-8 3 -16 5l-16 4t-18 2h-21q-2 -2 -7.5 -1.5t-9.5 -0.5q-8 -2 -15.5 -3.5
t-14.5 -4.5q-60 -26 -81 -93q-3 -8 -4 -16t-3 -17v-10q-1 -4 -1 -14q0 -23 4 -39q2 -7 3 -13t4 -13q11 -28 29 -48.5t47 -32.5q8 -3 16 -5.5t16 -4.5q5 -2 8.5 -1t8.5 -1q3 -1 11 -1t12 1q11 2 21 3t19 6q53 20 78 75q4 10 6.5 21t5.5 22q0 8 1 12z" />
    <glyph glyph-name="seven" unicode="7" 
d="M77 695h320h67q14 0 24.5 -1.5t15.5 -9.5q2 -4 2.5 -10t0.5 -13v-18t-2 -16q-4 -8 -9 -14l-10 -12q-3 -5 -7 -8t-8 -8q-8 -11 -17 -21.5t-17 -21.5l-28 -41.5l-28 -43.5q-5 -9 -10 -19t-11 -19q-2 -2 -2 -5t-2 -5q-7 -10 -13 -22.5l-11 -23.5q-10 -23 -19 -47t-20 -48
q-2 -5 -2.5 -9t-2.5 -9q-5 -12 -8.5 -24.5t-7.5 -24.5q-8 -23 -12.5 -47.5t-10.5 -48.5q-4 -15 -5 -30t-4 -30q-1 -4 -1 -12q-3 -12 -6 -20t-14 -11q-5 -2 -11 -2h-13q-14 0 -27.5 1t-19.5 9q-4 6 -3.5 17t2.5 19q0 3 0.5 5.5t0.5 5.5q2 8 2 15t2 14q5 19 8 37.5t8 35.5
q2 5 2 8t1 7q10 30 18.5 59t20.5 56q26 58 54 110.5t62 100.5q14 20 30 38.5t30 37.5l7.5 9.5t6.5 9.5l2.5 5t-0.5 6q-2 6 -7 7.5t-10 3.5h-7q-4 1 -9.5 0.5t-10.5 -0.5h-40h-176h-49q-8 0 -15.5 0.5t-12.5 2.5q-9 4 -12 12q-5 10 -3 29.5t7 26.5q2 2 5.5 3.5t7.5 3.5
q2 0 3.5 -0.5t3.5 0.5z" />
    <glyph glyph-name="eight" unicode="8" 
d="M514 206q1 -4 0.5 -10t-1.5 -10q0 -4 -0.5 -7.5t-0.5 -7.5q-2 -8 -3 -16t-4 -15q-2 -8 -4 -15t-6 -15q-18 -42 -51 -68t-78 -41q-12 -4 -24.5 -5.5t-25.5 -4.5q-6 -1 -12.5 -1t-13.5 -1h-8q-6 0 -12.5 -0.5t-11.5 1.5q-7 2 -13 1t-12 1q-5 1 -9 1t-9 2q-8 2 -15 3.5
t-14 3.5q-48 17 -79.5 42.5t-50.5 70.5q-3 6 -4.5 12.5l-3.5 14.5q-2 6 -3 13t-3 14q-1 5 -1 8.5v7.5q-1 4 -1.5 10t0.5 10q0 5 0.5 9.5t0.5 9.5q2 10 3 19.5t4 18.5q5 15 11 28t14 24q3 5 6.5 8t6.5 7q6 8 14 14q6 5 12.5 9.5l13.5 9.5q5 4 10 7.5t7 10.5q0 3 -1.5 5.5
t-2.5 4.5q-4 5 -9.5 9.5l-10.5 8.5q-4 3 -10 11q-2 3 -5.5 5.5t-5.5 6.5q-17 21 -26 49q-2 8 -3 16t-3 16q-2 5 -2 13.5t2 13.5q0 10 1 14q2 8 3 14.5t3 13.5q15 43 43.5 69t69.5 43q11 5 23.5 6.5t25.5 5.5q8 0 14.5 0.5t14.5 1.5q79 2 131.5 -26t75.5 -82
q11 -23 14.5 -56.5t-6.5 -61.5q-4 -13 -9.5 -24t-12.5 -21q-2 -4 -5.5 -7t-6.5 -6q-5 -9 -12 -13q-5 -5 -10.5 -9.5t-9.5 -9.5q-2 -2 -3.5 -4.5t-0.5 -5.5q1 -5 6 -9.5t11 -8.5t12 -7.5t10 -6.5q33 -24 50 -62q4 -8 6.5 -17t4.5 -18l2 -10.5l2 -10.5q1 -6 0 -12.5t1 -12.5z
M155 542q-3 -11 -1 -27.5t5 -25.5q11 -32 30 -48.5t53 -26.5q13 -3 33 -4.5t34 2.5q29 8 48.5 22.5t30.5 39.5q2 5 2.5 9t2.5 9q3 11 4 28t-2 29q-2 9 -4.5 17t-7.5 16q-17 27 -44.5 39t-72.5 12q-2 -2 -6 -1t-7 0q-5 -2 -10.5 -2.5t-10.5 -2.5q-24 -9 -42 -22.5t-28 -36.5
q-2 -6 -3.5 -12.5t-3.5 -13.5zM423 173q5 19 1.5 41t-9.5 36q-17 37 -51.5 61t-87.5 24q-3 -2 -8 -0.5t-8 0.5q-9 -2 -17.5 -3.5t-16.5 -3.5q-30 -11 -52.5 -29t-34.5 -46q-3 -8 -5 -16t-4 -17q-3 -12 -1.5 -30t4.5 -28q2 -5 2.5 -8.5t2.5 -8.5q10 -22 26.5 -40t38.5 -27
q7 -4 19 -7q22 -9 51 -9h19q10 2 19 3t18 4q26 8 48.5 26.5t33.5 42.5q4 8 6.5 16.5z" />
    <glyph glyph-name="nine" unicode="9" 
d="M509 374q0 -8 1 -16t-1 -15q-2 -4 -1 -8.5t0 -8.5v-10q-1 -9 -1 -17.5t-1 -16.5l-2 -15.5l-2 -15.5q-1 -4 -1 -8t-1 -9q-4 -14 -5.5 -28t-6.5 -27q-5 -17 -10.5 -33t-12.5 -31q-2 -6 -5.5 -11.5l-6.5 -10.5q-20 -32 -43 -53t-59 -36q-12 -5 -25.5 -7t-27.5 -5
q-6 -1 -12 -1t-13 -1q-3 -1 -10 -0.5t-10 0.5h-10q-8 2 -16.5 2.5t-15.5 2.5q-4 1 -6.5 0.5t-5.5 1.5q-9 2 -18 4.5t-17 5.5q-58 24 -87 74q-8 13 -12.5 27l-9.5 30q-2 8 -0.5 16t6.5 11q3 2 11 3.5t17 2t17.5 -0.5t13.5 -2q2 -1 5.5 -3t5.5 -4q6 -8 9.5 -19t8.5 -20
q25 -39 74 -54q7 -2 14.5 -2.5t15.5 -2.5q4 -1 11.5 -1t10.5 1t6.5 1h6.5l15.5 4t14.5 5q35 15 54 43t31 65q3 8 4.5 15t3.5 15q2 9 3.5 19.5t3.5 20.5q1 5 1.5 10.5t0.5 10.5q2 6 2 15.5t-2 15.5q-3 9 -9.5 8t-11.5 -6q-8 -5 -13.5 -12t-13.5 -12q-16 -11 -33 -19.5
t-39 -14.5q-10 -3 -19.5 -3t-20.5 -2h-10q-5 2 -9.5 1t-8.5 0q-3 1 -9 1l-12.5 2l-12.5 2q-45 12 -76 33q-27 19 -45.5 46.5t-29.5 62.5q-2 7 -3.5 14.5t-3.5 15.5q-1 3 -1 6t-1 6q-1 6 -1 12.5t-2 11.5v12q-1 5 -1 14t2 14v11q2 8 2.5 15t2.5 14q6 20 12.5 38t17.5 34
q4 7 8.5 13t9.5 12q2 1 4 3q9 13 22 22q26 20 53 31q8 4 16.5 6.5t17.5 4.5q10 3 20 4t21 3q3 1 8.5 0t7.5 1q72 2 120 -23t75 -68q9 -14 16 -29t14 -32q5 -14 8 -30t7 -32q2 -5 2 -10.5t1 -10.5q2 -6 2 -12.5t2 -11.5v-11q2 -5 1 -10t1 -10q0 -2 -0.5 -5t0.5 -5
q1 -3 0.5 -7t0.5 -8t0.5 -9t-0.5 -10zM409 461q1 5 1 12t-1 12t-1 15q-2 8 -3.5 15t-3.5 14q-14 43 -38.5 67t-69.5 36q-9 2 -20 2h-22q-2 -2 -7 -1.5t-9 -0.5q-8 -2 -15 -4l-14 -4q-29 -13 -46 -35.5t-27 -52.5q-3 -9 -4.5 -18.5t-3.5 -19.5v-9q-3 -11 -1.5 -27.5
t3.5 -26.5q2 -6 3 -11.5t3 -10.5q8 -20 19.5 -38t27.5 -29q5 -5 11 -8t12 -7q15 -8 37 -13q5 -2 8.5 -1t8.5 -1q4 -1 11 -1t12 1q10 2 19 3.5t18 5.5q54 22 79 79q5 10 7 20.5t5 21.5q0 10 1 15z" />
    <glyph glyph-name="colon" unicode=":" horiz-adv-x="278" 
d="M147 407q-15 0 -33 -0.5t-25 8.5t-6.5 28t0.5 35q0 8 0.5 15t3.5 12q6 8 14 9q2 1 4.5 1t4.5 1q8 0 19 0.5t21.5 0t19.5 -2t14 -4.5q3 -2 4.5 -6.5t3.5 -9.5v-5q1 -5 0.5 -11t-0.5 -11v-32t-8 -23q-7 -5 -16.5 -5h-20.5zM184 104q8 -7 8 -24v-31q0 -5 0.5 -11t-0.5 -10
v-6l-3.5 -9t-4.5 -7q-6 -5 -15.5 -5h-20.5q-14 0 -33.5 -0.5t-25.5 7.5q-7 10 -6.5 28.5t0.5 34.5q0 8 0.5 16t4.5 13q4 6 12 8q2 1 4.5 1t4.5 1q8 0 19 0.5t22 0t20 -2t14 -4.5z" />
    <glyph glyph-name="semicolon" unicode=";" horiz-adv-x="278" 
d="M92 412q-9 7 -8.5 27t0.5 36v13.5t2 11.5q4 11 13 14q3 0 5.5 0.5t5.5 1.5q8 0 19 0.5t22 0t20 -2t14 -4.5q5 -4 5 -9t2 -12q2 -5 1.5 -11t-0.5 -11v-32t-9 -23q-7 -5 -17.5 -5h-21.5q-14 0 -29.5 -0.5t-23.5 5.5zM193 23v-19.5t-2 -17.5v-8q-2 -8 -3.5 -16t-3.5 -16
q-8 -19 -18.5 -35t-25.5 -27l-13.5 -9.5t-14.5 -7.5q-8 -4 -15 -3q-10 3 -11 16t4 21q7 9 18 16q9 7 15.5 17.5t11.5 21.5q2 4 4.5 11.5t0.5 12.5t-3.5 9.5t-5.5 6.5q-8 5 -20 5t-20 6q-3 2 -4 6.5t-3 9.5v5q-1 5 -0.5 10.5t0.5 10.5q0 14 -0.5 29t5.5 23q3 4 8 5.5t11 3.5
q2 0 4 -0.5t4 0.5q9 0 19.5 0.5t21 0t19 -2.5t11.5 -7q5 -5 5.5 -13.5t0.5 -17.5v-47z" />
    <glyph glyph-name="less" unicode="&#x3c;" horiz-adv-x="600" 
d="M534 502q8 0 11 -2q8 -5 9 -20.5t-3 -24.5q-5 -12 -19 -19t-25 -12q-54 -23 -105 -47t-105 -47l-57 -27q-16 -7 -31.5 -14.5t-32.5 -14.5q-7 -3 -15 -7t-10 -11q-2 -9 5.5 -14t12.5 -7q17 -9 35.5 -17l36.5 -16q33 -14 65.5 -30t64.5 -30q19 -8 37 -16.5l36 -16.5l28 -12
t28 -13q12 -6 27 -11.5t22 -16.5q2 -3 2.5 -7t1.5 -8v-8q2 -5 0.5 -11.5t-3.5 -10.5q-5 -8 -15 -6t-17 5l-43 19.5t-43 18.5l-138 63l-138 63l-34 15.5l-34 14.5l-20.5 9.5t-15.5 14.5q-5 7 -5 24.5t5 25.5t13.5 12.5t18.5 8.5l30 14l31 14l111 50.5l112 50.5l22.5 10.5
l22.5 10.5l43 19.5l43 19.5q6 2 12 5t12 5q2 1 5 1.5t6 2.5z" />
    <glyph glyph-name="equal" unicode="=" horiz-adv-x="600" 
d="M63 322q-7 3 -10 8q-5 9 -4 25t6 24q2 2 6 3.5t7 2.5q2 1 4 0.5t4 0.5h424q14 0 28 -0.5t19 -9.5q2 -4 2.5 -8t1.5 -9q2 -5 0 -12q-2 -8 -3 -13.5t-7 -9.5t-15.5 -4h-19.5h-407h-19t-17 2zM547 174q2 -4 2.5 -8t1.5 -9q2 -6 0 -13l-2 -11.5t-6 -9.5q-6 -5 -16.5 -5h-21.5
h-403q-10 0 -20 -0.5t-18 1.5q-8 4 -12.5 14t-2.5 23v6q1 3 1.5 6.5t2.5 5.5q5 6 13 8q2 1 4 1t4 1h426q15 0 28 -1t19 -9z" />
    <glyph glyph-name="greater" unicode="&#x3e;" horiz-adv-x="600" 
d="M60 502q14 0 23 -5t19 -9q39 -19 76 -35l112 -50.5l112 -50.5q17 -7 32.5 -14.5t32.5 -14.5l51 -24q10 -4 18.5 -8.5t13.5 -12.5t5 -25.5t-5 -24.5q-6 -10 -15.5 -14.5l-20.5 -9.5l-34 -14.5l-34 -15.5l-138 -63l-139 -63q-21 -9 -42 -19t-43 -19q-7 -3 -17 -5t-15 6
q-2 3 -3.5 10t-0.5 12v8q2 4 2.5 8t2.5 7q7 11 22 16.5t27 11.5l64.5 29.5l64.5 28.5t64.5 30t64.5 30l37.5 16t35.5 17q5 2 12.5 7t5.5 14q-2 7 -10.5 11l-14.5 7l-29.5 13.5l-29.5 13.5l-73 33l-73 34l-51.5 22.5l-50.5 23.5q-5 2 -9.5 4t-9.5 4t-10.5 5t-10.5 5
l-14.5 7.5t-11.5 10.5t-5.5 22t4.5 23q2 3 4 4t4 3z" />
    <glyph glyph-name="question" unicode="?" 
d="M474 606q6 -14 9.5 -33t3.5 -39t-3 -39t-9 -34q-11 -27 -26.5 -47.5t-34.5 -39.5l-11.5 -12t-11.5 -11q-5 -4 -8 -8t-7 -8l-16 -16t-14 -17q-11 -14 -17.5 -29.5t-11.5 -35.5q-4 -14 -2.5 -30t-6.5 -25q-3 -4 -8 -5t-10 -3q-2 0 -5.5 0.5t-5.5 -0.5q-3 -1 -7 -0.5t-6 0.5
h-11q-6 2 -11 3.5t-8 5.5q-5 7 -5 17t1 21q0 21 4.5 39t11.5 33q13 30 34 53t43 44l10 10t10 11l3.5 3.5l3.5 3.5l10 11.5t10 12.5q3 4 5 8.5t5 9.5q12 20 16 52.5t-5 60.5q-4 12 -9 22t-12 20q-10 13 -25 21.5t-32 14.5q-5 2 -10.5 2t-11.5 1q-7 2 -20 2t-20 -2t-14 -3
t-13 -4q-23 -9 -38.5 -23.5t-27.5 -34.5q-7 -11 -11 -24t-7 -27q-3 -11 -4 -21t-6 -18q-3 -4 -13 -6t-21.5 -2.5t-21.5 1.5t-14 5t-6.5 12t-0.5 17l3 21q3 11 5.5 21.5t6.5 19.5q3 8 5 15t7 14l10 16.5t11 16.5q17 22 40 38t51 27q11 5 24 7t26 5q7 1 13.5 1.5t13.5 0.5
q69 2 115.5 -22t72.5 -66q5 -8 8 -16.5t7 -18.5zM326 76q1 -5 1 -11v-11q0 -14 -1 -29t-10 -21q-7 -4 -17 -4h-20h-30.5t-23.5 6q-4 3 -6 11t-2.5 17.5t0 19t0.5 17.5q0 7 0.5 13t2.5 11q4 11 17 14q3 0 7 -0.5t6 1.5q8 0 18.5 0.5t21 -0.5t19 -3t11.5 -6q3 -3 4 -7t2 -9v-9
z" />
    <glyph glyph-name="at" unicode="@" horiz-adv-x="800" 
d="M750 454q2 -6 3 -19t-1 -19q-2 -7 -1 -12.5t0 -11.5q-1 -4 -1 -7.5t-1 -7.5l-4 -18.5t-4 -17.5q-5 -12 -8 -22.5t-8 -21.5q-23 -52 -66 -94.5t-99 -61.5q-22 -7 -48 -5t-38 17q-5 7 -11.5 18t-14.5 13q-5 1 -9 -1.5t-6 -4.5q-9 -5 -17 -11.5t-17 -12.5q-11 -7 -23.5 -11
t-26.5 -8q-19 -5 -41 -1t-35 10q-26 11 -44.5 31t-29.5 46q-3 8 -5 16t-4 17t-3.5 27.5t0.5 29.5q0 2 0.5 5t0.5 5q2 11 3 21t3 20q4 11 6.5 22t6.5 21q17 40 40 73.5t56 56.5q14 9 28 16.5t31 12.5q7 2 14 3t14 3q5 2 9.5 1t9.5 1q3 1 9 1t10 -1q4 -2 7 -1t6 0
q9 -2 18 -4.5t17 -7.5t16.5 -11.5t14.5 -13.5q4 -5 8.5 -11.5t12.5 -8.5q5 -2 8 1l5 5q5 7 8 14.5t10 12.5q4 3 12 5t15.5 1.5t14 -3t8.5 -8.5t0.5 -13.5t-3.5 -12.5q-5 -13 -8 -25.5t-7 -24.5q-5 -14 -8 -28t-8 -28q-12 -36 -22 -73t-22 -73q-3 -8 -5 -18.5t-2 -20.5
t3 -18.5t12 -12.5q2 -2 7 -3.5t10 -0.5q2 1 4.5 1t4.5 1q5 2 9.5 4t8.5 5q32 20 51.5 53.5t34.5 69.5q5 11 7 23t5 23q1 4 1 7.5t1 7.5q2 10 2.5 23.5t0 27t-2.5 25.5t-5 21q-2 5 -2.5 10t-2.5 10l-11 26.5t-13 23.5q-19 30 -42.5 51t-54.5 40q-6 2 -10 4q-19 9 -40 17
l-12 3q-16 5 -34 7.5t-38 2.5h-14.5t-12.5 -1h-6q-3 -1 -7 -1t-8 -1q-10 -2 -19 -3.5t-18 -4.5q-74 -25 -122.5 -72t-77.5 -116q-7 -15 -10.5 -31.5t-8.5 -34.5q-1 -5 -0.5 -10.5t-1.5 -10.5q-2 -8 -2 -17.5v-18.5q0 -18 1 -35t6 -31q1 -5 1.5 -9t2.5 -9l5.5 -21t7.5 -19
q41 -93 122 -146q17 -11 36 -19t39 -15q8 -3 15.5 -4.5t15.5 -3.5q4 -1 7.5 -1t7.5 -1q9 -2 19 -2.5t21 -0.5h10t9 1t8.5 0.5t8.5 0.5q3 1 11 1q9 2 19 3.5t19 4.5q29 10 53 21t46 27l12.5 9t11.5 9q5 3 8.5 7t7.5 7t10 11q3 4 10 9t12 7q8 3 21.5 2.5t17.5 -5.5
q5 -5 2.5 -12t-5.5 -12q-5 -7 -10.5 -13t-10.5 -13q-5 -5 -9.5 -10t-9.5 -10q-3 -2 -5.5 -5t-5.5 -5q-8 -6 -15 -12t-15 -11q-23 -17 -50.5 -29t-58.5 -22q-11 -4 -22.5 -5.5t-23.5 -4.5q-4 -1 -8 -0.5t-8 -1.5q-7 0 -13.5 -0.5t-14.5 -1.5q-3 -1 -12.5 -0.5t-11.5 1.5h-11
q-4 1 -9 1t-9 1h-8q-8 2 -16 3t-16 3q-10 2 -20 4.5t-19 5.5q-11 4 -20.5 8l-18.5 8q-65 29 -111 77.5t-75 114.5q-6 14 -9.5 27.5t-8.5 29.5q-3 11 -4.5 22.5t-3.5 23.5q-2 5 -1 11t-1 12q-1 5 -1.5 16t1.5 17v11l3 33q2 6 2.5 12.5t2.5 13.5q4 12 6.5 24.5t7.5 23.5
q32 78 85 131.5t131 85.5q12 5 25.5 8.5l27.5 7.5q6 2 12 2.5t12 2.5q8 1 16 1.5t16 1.5q2 1 5.5 0t5.5 0q60 2 109 -11.5t87 -36.5l15 -9l15 -9q68 -49 103 -130q6 -14 9.5 -29.5t7.5 -31.5q2 -5 1.5 -9.5t0.5 -9.5zM501 393q2 8 0.5 21.5t-3.5 19.5q-1 3 -1 6t-2 7
q-8 18 -20.5 32t-30.5 22q-11 4 -29 4q-2 -1 -5 -0.5t-5 -0.5q-12 -2 -19 -4q-12 -4 -22.5 -10t-19.5 -13q-5 -4 -9.5 -8.5t-8.5 -9.5q-2 -2 -4 -3.5t-4 -3.5q-4 -5 -7.5 -10t-7.5 -10q-9 -14 -16 -29t-13 -31q-4 -8 -6 -17t-4 -17q-1 -6 -1.5 -11.5t-1.5 -11.5
q-2 -7 -1.5 -20t2.5 -19q2 -5 2.5 -10t2.5 -10q15 -40 55 -53q25 -8 47.5 -0.5t36.5 18.5q29 20 47.5 48.5t32.5 62.5q4 10 6.5 19.5t4.5 20.5l2 10.5z" />
    <glyph glyph-name="A" unicode="A" horiz-adv-x="648" 
d="M635 53l5 -12t4.5 -14.5t0 -14t-8.5 -9.5q-5 -2 -12 -2h-14h-29.5t-24.5 5q-10 6 -14.5 21t-9.5 27q-11 26 -20 54t-20 55l-5.5 17t-6 15t-9.5 12t-16 8q-5 2 -11.5 1.5t-13.5 -0.5h-189q-9 0 -20 0.5t-21 -0.5t-18.5 -3t-12.5 -8q-8 -10 -11.5 -22.5t-8.5 -25.5
q-10 -23 -18.5 -48t-18.5 -48l-4.5 -13.5t-5.5 -15.5t-6.5 -14.5t-7.5 -9.5q-8 -6 -21.5 -6.5t-28.5 -0.5q-8 0 -15.5 0.5t-12.5 4.5q-5 3 -5.5 9t1 12.5t4 13t4.5 9.5q14 32 25 63.5t24 63.5q9 22 17 43.5t17 43.5q30 72 57 145.5t57 146.5q11 26 20.5 53t20.5 53
q5 11 9.5 24.5t13.5 19.5q4 4 13 6q2 1 4.5 0.5t4.5 0.5q18 0 42 0.5t35 -7.5q8 -6 12.5 -19.5t9.5 -24.5q10 -23 18 -46t18 -46q8 -20 15.5 -41t16.5 -41q30 -73 57.5 -147.5t58.5 -147.5q4 -9 6.5 -17l5.5 -17l21.5 -53zM421 296q9 3 11.5 10t1 15.5t-5 17t-6.5 14.5
q-2 4 -2 7t-2 7q-3 8 -5.5 16.5t-6.5 17.5q-15 36 -26.5 73.5t-26.5 73.5q-5 11 -8.5 22t-8.5 21q-2 5 -4.5 9.5t-10.5 4.5q-2 -2 -4 -3t-4 -3q-4 -5 -6 -10.5l-4 -11.5q-5 -11 -8 -22t-8 -22q-17 -39 -29.5 -79t-28.5 -78q-2 -5 -3.5 -10t-3.5 -10l-6 -16t-5 -16
q-2 -5 -1.5 -11t2.5 -10q5 -8 21 -8.5t30 -0.5h107q11 0 27 -0.5t24 2.5z" />
    <glyph glyph-name="B" unicode="B" horiz-adv-x="685" 
d="M631 259q6 -19 6.5 -47.5t-5.5 -48.5q-2 -9 -3.5 -17.5t-5.5 -16.5q-24 -60 -76 -94q-14 -8 -28.5 -14.5t-31.5 -11.5q-6 -2 -12.5 -2.5t-12.5 -2.5t-11.5 -1.5t-11.5 -0.5q-5 -2 -11.5 -1.5t-12.5 0.5h-295q-12 0 -22.5 1t-15.5 8q-4 6 -4.5 15t-0.5 19v625v18t4 15
t15 10q2 1 4 0.5t4 0.5h240h38q7 -1 14 0t13 -1h9q5 -2 11 -1.5t11 -1.5h9q5 -2 11 -2t11 -2q8 -2 15.5 -3.5t15.5 -4.5q48 -20 74 -58q16 -22 24 -47q2 -7 2.5 -13.5t2.5 -14.5q2 -6 2 -12.5v-14.5v-8q-2 -9 -2.5 -18t-2.5 -17q-12 -48 -41 -75q-7 -8 -15 -13.5t-15 -13.5
l-5 -5t-2 -7q2 -10 14 -15t20 -10q30 -19 49 -45q8 -11 13.5 -24t10.5 -27zM173 620q-4 -9 -3.5 -23t0.5 -26v-102v-29.5t6 -23.5q3 -5 8.5 -6.5l12.5 -3.5h10q5 -1 11 -0.5t11 0.5h92q7 0 14 -0.5t12 0.5h28q4 2 8 1t9 0q11 3 21.5 3.5t20.5 4.5q22 7 38.5 17.5t27.5 28.5
q10 17 13 45q1 8 1 18t-2 18q-1 3 -0.5 6t-0.5 6l-7.5 21t-9.5 18q-11 15 -28.5 23.5t-39.5 12.5t-47.5 5t-52.5 1h-126q-2 -2 -5.5 -1.5t-5.5 -0.5q-12 -3 -16 -13zM543 204q1 5 0.5 10.5t-1.5 9.5q-1 5 -1 8.5t-1 8.5q-6 20 -16 34q-12 17 -28.5 27t-39.5 18q-8 2 -17.5 3
t-19.5 3q-6 2 -11.5 0.5t-11.5 0.5q-5 1 -10.5 1h-10.5h-175q-2 -2 -5.5 -1.5t-5.5 -0.5q-12 -3 -16 -13q-4 -9 -3.5 -25t0.5 -29v-113v-32t6 -25q5 -7 15 -8.5t22 -1.5h168h38t33 5q26 8 44 20.5t30 32.5q6 10 9.5 22t6.5 26q2 5 1 9.5t0 9.5z" />
    <glyph glyph-name="C" unicode="C" horiz-adv-x="722" 
d="M368 729q98 2 164.5 -31.5t103.5 -92.5q10 -16 16.5 -30.5t12.5 -34.5q2 -5 4 -13.5t-1 -15.5q-2 -6 -7.5 -7.5t-11.5 -3.5h-10q-3 -1 -7.5 -1h-8.5q-14 0 -25.5 1.5t-16.5 9.5q-7 10 -11 23t-11 24q-13 22 -29.5 38t-38.5 30q-12 8 -26.5 12l-29.5 8q-11 3 -25 4.5
t-29.5 1.5t-30 -1.5t-24.5 -4.5q-10 -2 -19 -4t-18 -6q-84 -35 -121 -120q-7 -14 -11.5 -29.5l-9.5 -31.5q-2 -6 -2 -12.5t-2 -12.5q-1 -4 -1 -7t-1 -7q-2 -11 -2.5 -22.5t-0.5 -23.5q0 -7 -0.5 -14.5t0.5 -13.5v-10q2 -7 1.5 -14t1.5 -14q2 -6 1.5 -12t1.5 -11
q3 -13 5.5 -25.5t6.5 -24.5q17 -50 44 -85.5t71 -58.5q14 -7 28.5 -11l31.5 -9q7 -2 13 -1.5t14 -1.5q5 -1 18 -1.5t19 1.5h7q4 1 8 0.5t8 1.5q10 2 19.5 3.5t18.5 5.5q78 32 110 105q8 18 15 43q2 9 3.5 18.5t6.5 17.5t16 9t24 1h10t9 -1h7q3 -1 6.5 -1.5t5.5 -2.5
q7 -4 8 -14.5t-2 -20.5l-11 -44t-15 -40q-8 -13 -14.5 -25t-14.5 -24q-18 -26 -44.5 -47.5t-57.5 -35.5q-11 -5 -21.5 -8t-21.5 -7t-22.5 -5.5t-23.5 -3.5q-5 -2 -9 -1.5t-8 -0.5q-6 -1 -12 -1t-13 -1q-3 -1 -13.5 -0.5t-13.5 1.5q-5 1 -9.5 0.5t-9.5 0.5h-10q-8 2 -15 2.5
t-15 2.5q-9 2 -18 3.5t-17 4.5q-21 6 -38 15q-63 27 -102 77t-62 118q-4 12 -6.5 25t-5.5 27q-2 5 -1.5 9t-0.5 9q-2 9 -2.5 19t-2.5 19v19q-2 5 -2 17t2 17q1 3 0 6.5t0 5.5v9q1 8 1.5 16.5t2.5 16.5q2 6 2 12.5t2 13.5q5 17 8 33t9 30l10.5 26.5t12.5 24.5q15 26 30 47
q3 5 7.5 8.5t7.5 8.5q6 8 12.5 14l13.5 12l11.5 9.5t12.5 9.5q15 11 31.5 19l34.5 16q11 5 23.5 7.5t24.5 6.5q7 1 13 2l12 2q8 1 15.5 1.5t15.5 1.5q2 1 5 0t5 0z" />
    <glyph glyph-name="D" unicode="D" horiz-adv-x="704" 
d="M664 374q0 -8 0.5 -17.5t-1.5 -16.5v-10q-1 -3 -0.5 -7t-0.5 -6q-1 -5 -1 -10.5t-1 -10.5q-3 -14 -4 -29.5t-6 -29.5q-3 -12 -6.5 -24.5t-8.5 -24.5q-17 -43 -42.5 -77.5t-63.5 -58.5q-19 -12 -40.5 -20.5t-46.5 -16.5q-11 -4 -23.5 -5.5t-24.5 -4.5q-11 -2 -21.5 -2
t-20.5 -2h-14q-3 -1 -7 -0.5t-8 0.5h-200q-15 0 -26.5 1.5t-15.5 12.5q-4 8 -3.5 23t0.5 27v591q0 12 -0.5 25.5t4.5 21.5q4 7 15 9q2 1 4 0.5t4 0.5h217q5 0 9.5 0.5t8.5 -0.5q5 -2 10.5 -1t10.5 0t11 -1t11 -1t9.5 -1t9.5 -1q11 -2 21 -3.5t20 -4.5l42 -13.5t37 -17.5
q14 -8 25 -16q3 -2 6 -4.5t6 -4.5q6 -5 11 -10l10 -10t8 -7q4 -6 8.5 -11t8.5 -11q5 -6 8.5 -12.5t8.5 -13.5q2 -4 3 -7t3 -7q4 -8 7 -15.5t7 -15.5q4 -11 6.5 -22.5t5.5 -22.5q2 -6 2 -11.5t2 -11.5q5 -18 5.5 -39.5t0.5 -42.5zM569 322q2 10 2 21.5v22.5q0 8 0.5 15.5
t-1.5 14.5q0 3 -0.5 6t-0.5 7q-2 11 -2.5 22t-3.5 22q-2 8 -3.5 15.5t-3.5 15.5q-11 36 -28 63q-28 45 -83 68q-9 5 -19 7.5l-21 5.5t-22.5 3.5t-22.5 2.5h-21q-3 1 -7 1h-8h-122q-2 -1 -5 -0.5t-5 -0.5q-5 -2 -9.5 -4t-6.5 -6t-4 -14v-8q-1 -4 -1 -9v-9v-454v-9.5t1 -8.5
v-8q2 -10 4 -14q8 -12 30 -11.5t42 0.5h58q7 0 15 -0.5t14 1.5h11q5 1 11 0.5t12 0.5q6 2 12 2.5t13 2.5l21.5 6t21.5 8q37 16 63.5 43.5t43.5 65.5q5 11 8.5 23.5t7.5 25.5q3 11 4.5 23.5t3.5 24.5q1 5 1 8.5v7.5z" />
    <glyph glyph-name="E" unicode="E" horiz-adv-x="611" 
d="M105 713h327h86q11 0 22 0.5t18 -4.5q3 -2 5 -5l4 -6q2 -7 2 -22.5t-2 -23.5q-4 -14 -17 -15.5t-31 -1.5h-100h-168q-16 0 -37.5 0.5t-31.5 -5.5t-10.5 -21t-0.5 -31v-102q0 -11 -0.5 -26t1.5 -24q3 -12 12 -16q4 -2 14 -4h10q4 -1 8.5 -0.5t9.5 0.5h34h196q9 0 20 0.5
t22.5 0t21 -2t14.5 -4.5q3 -2 5 -9t3 -15t0.5 -16.5t-2.5 -14.5q-2 -9 -9 -13q-2 -2 -5.5 -2.5t-6.5 -1.5h-6q-5 -1 -10 -0.5t-10 0.5h-37h-211q-12 0 -23.5 0.5t-21.5 -1t-17.5 -5.5t-10.5 -14q-2 -6 -1.5 -14t0.5 -16v-56v-95q0 -14 1 -25.5t8 -16.5t16 -5.5t20 -0.5h64
h185h57q8 0 16 0.5t14 -1.5q12 -4 16 -11q2 -3 3 -10t1.5 -14.5t-0.5 -15t-2 -11.5q-4 -8 -9 -11q-6 -4 -15.5 -4h-18.5h-70h-266h-70q-14 0 -24 1.5t-15 9.5q-4 6 -4 15.5v18.5v70v268v224v62v18t4 14q4 7 15 10q2 1 4 0.5t4 0.5z" />
    <glyph glyph-name="F" unicode="F" horiz-adv-x="574" 
d="M106 713h309h81h21.5t16.5 -4q8 -5 9.5 -14.5t1.5 -22.5q0 -5 0.5 -9.5t-1.5 -8.5q-4 -16 -17.5 -17.5t-33.5 -1.5h-104h-147q-16 0 -34 0.5t-27 -6.5q-9 -6 -9.5 -21t-0.5 -30v-99q0 -8 -0.5 -20t1.5 -20v-8q2 -6 3.5 -11.5t6.5 -8.5q9 -6 28 -5.5t33 0.5h180
q9 0 19.5 0.5t21 0t19 -2.5t11.5 -7q5 -6 5 -15v-20v-11t-2 -9q-4 -10 -11 -11q-4 -2 -7.5 -2t-8.5 -1q-4 -1 -8.5 -0.5t-8.5 0.5h-35h-169q-16 0 -37.5 0.5t-30.5 -6.5q-5 -4 -7.5 -12.5t-3 -19.5t0 -22.5t0.5 -20.5v-172q0 -17 1 -37t-7 -30q-3 -4 -9 -4.5t-12 -2.5h-19
q-14 0 -26 1t-17 10q-4 6 -4 16.5v21.5v80v418v108q0 11 -0.5 24.5t4.5 21.5q4 6 15 10q2 1 4.5 0.5t4.5 0.5z" />
    <glyph glyph-name="G" unicode="G" horiz-adv-x="759" 
d="M370 729q69 2 121 -12.5t92 -42.5q18 -12 33 -27l4 -4l4 -4q5 -8 11 -14.5t11 -14.5q11 -17 19 -36l16 -39q3 -10 3 -21t-8 -16q-2 -2 -5.5 -2t-6.5 -1h-7q-5 -2 -16.5 -2t-16.5 2q-3 1 -6 0t-7 1q-6 1 -11 5q-6 5 -8.5 14t-6.5 17q-5 13 -11.5 24.5t-14.5 22.5
q-2 2 -5 4.5t-5 5.5q-9 10 -18 17q-5 3 -9 6.5t-9 6.5q-14 8 -30 14t-33 11q-9 2 -18 3t-18 3q-4 1 -7.5 0.5t-6.5 0.5h-12h-14t-13 -1q-2 0 -5 -0.5t-5 -0.5l-12.5 -2l-12.5 -2q-35 -9 -61 -25q-42 -26 -67.5 -61.5t-42.5 -86.5q-4 -11 -6 -23t-5 -24q-2 -5 -1.5 -9.5
t-1.5 -9.5q-2 -7 -1.5 -14.5t-1.5 -15.5v-11q-1 -6 -1 -17t1 -16v-10q1 -2 1 -5.5t1 -5.5q2 -7 1 -13t1 -13q2 -8 3.5 -15.5t3.5 -15.5q5 -15 10.5 -29.5t11.5 -28.5q5 -12 12.5 -23t15.5 -21q37 -50 97 -74q7 -3 14 -5t15 -4q24 -7 56 -7h13.5t12.5 1q5 2 10.5 1t10.5 1
q14 4 26.5 6.5t23.5 7.5q93 37 125 133q2 8 3.5 16t3.5 16q3 12 2 26.5t-9 20.5q-8 5 -22 5h-27h-111h-24t-21 3q-8 4 -10 11q-2 4 -3 11.5t-1 15.5t1.5 15.5t3.5 10.5q4 7 14 10q5 2 12 2h14h45h152q11 0 22 0.5t20.5 -1t16.5 -5t10 -12.5q2 -6 1.5 -14t-0.5 -16v-55v-185
v-46v-14t-2 -12q-3 -8 -12 -12q-3 -2 -13 -2q-14 0 -21 3t-11 9t-6.5 14l-5.5 18q-2 7 -6.5 18t-15.5 8q-7 -2 -11 -6t-9 -8q-8 -6 -15 -12.5t-15 -11.5q-21 -14 -44.5 -23t-50.5 -17q-7 -2 -14 -3t-15 -3q-8 0 -12 -1h-6.5t-6.5 -1h-10q-4 -1 -11 -1t-12 1h-17
q-11 2 -20.5 2.5t-19.5 3.5q-18 5 -35 9t-33 11q-57 26 -100 69.5t-69 101.5q-5 12 -9.5 25l-9.5 27q-1 4 -1 7.5t-2 7.5q-3 11 -4.5 23t-4.5 24q-1 4 -0.5 8t-0.5 7v9q-2 5 -2 19t2 20v9v12t1 12q1 5 1 10.5t1 10.5q3 12 4.5 24t4.5 24q10 33 20.5 63.5t27.5 56.5
q30 47 71.5 80.5t98.5 52.5q11 4 21.5 5.5t21.5 4.5q5 2 9.5 2t9.5 1q8 1 16.5 1.5t16.5 0.5z" />
    <glyph glyph-name="H" unicode="H" horiz-adv-x="722" 
d="M106 713q14 0 33.5 0.5t25.5 -7.5q8 -9 7.5 -26.5t-0.5 -33.5v-148v-39q0 -5 -0.5 -10.5t0.5 -9.5v-8q1 -3 1.5 -7t2.5 -6q4 -6 9.5 -8t13.5 -4h28h56h176q10 0 23 -0.5t25.5 0t22.5 2.5t14 8q7 10 6.5 31.5t-0.5 37.5v157q0 16 -1 35t7 28q2 4 6.5 5t9.5 3h5q4 1 9 0.5
t10 -0.5q11 0 21.5 -0.5t17.5 -5.5t7.5 -18t0.5 -25v-109v-413v-95q0 -14 -1 -25t-9 -16q-4 -3 -8 -3t-10 -2q-4 -1 -8.5 -0.5t-8.5 0.5h-24.5t-17.5 7q-8 10 -7 31t1 38v169v17.5v20.5t-1 19t-4 14q-4 5 -13 9q-5 2 -12 2h-15h-44h-260q-8 -2 -13.5 -3.5t-9.5 -6.5
q-3 -5 -4.5 -14t-2 -20t0 -22.5t0.5 -19.5v-158v-43q0 -8 -0.5 -15t-2.5 -12q-5 -11 -19 -12t-30 -1q-10 0 -18.5 0.5t-13.5 4.5q-8 5 -8.5 18.5t-0.5 27.5v115v399v94q0 11 -0.5 23t4.5 19q4 7 15 10q2 1 4 0.5t4 0.5z" />
    <glyph glyph-name="I" unicode="I" horiz-adv-x="259" 
d="M111 711q7 0 16 0.5t17.5 0t15.5 -2.5t10 -6q6 -7 6.5 -19.5t0.5 -25.5v-97v-386v-117v-27.5t-5 -22.5q-4 -5 -9.5 -6t-13.5 -3h-19q-14 0 -26 1t-17 10q-4 6 -4 16.5v21.5v80v418v108q0 11 -0.5 24.5t4.5 21.5q4 7 16 10q2 1 4 0.5t4 0.5z" />
    <glyph glyph-name="J" unicode="J" horiz-adv-x="519" 
d="M374 713q7 0 16 0.5t17.5 0t16 -2.5t10.5 -6q3 -5 4.5 -14.5t2 -21t0 -23t-0.5 -20.5v-201v-193q0 -33 -0.5 -64.5t-8.5 -56.5q-12 -35 -31 -58.5t-48 -40.5q-6 -5 -12.5 -7t-14.5 -5q-12 -5 -25.5 -7.5t-27.5 -5.5q-5 -2 -10 -1t-11 0q-2 -1 -5 -0.5t-5 -0.5
q-4 -1 -11 -1t-11 1q-5 1 -11 0t-11 1q-13 3 -25 4t-23 5q-37 12 -64 34t-42 56q-5 12 -8.5 25l-7.5 27q-1 5 -1 8.5t-1 8.5q-1 3 -1 7.5t-1 7.5v11q-2 8 -1 20.5t3 17.5q2 9 11 13q3 2 6 1.5t8 0.5q4 1 8.5 1h9.5q12 0 24.5 -0.5t17.5 -7.5q4 -6 4 -12t2 -14q1 -3 0.5 -6.5
t0.5 -5.5v-14q2 -5 1.5 -9.5t1.5 -9.5q3 -13 6 -24.5t9 -21.5q17 -29 54 -41q5 -2 10.5 -2.5t10.5 -2.5h5q7 -1 19.5 -1.5t19.5 1.5t14.5 3.5t13.5 3.5q38 16 55 55q5 13 7.5 31t3 37.5t0 39.5t-0.5 38v283v103q0 11 -1 24t4 21q6 7 16 10h4t4 1z" />
    <glyph glyph-name="K" unicode="K" horiz-adv-x="667" 
d="M106 714q7 0 16 0.5t18 0t16 -2.5t10 -6q3 -5 4.5 -13t2 -18t0 -20.5t-0.5 -18.5v-175v-36q0 -5 -0.5 -10t0.5 -9v-8q1 -3 1 -6.5t2 -5.5l3 -3l3 -3q12 -2 17 4t12 11q5 4 9.5 9t9.5 10l12 11.5l12 11.5q4 3 7 6.5t6 6.5q5 5 10 9.5t10 9.5l12 12t13 12q3 4 6 7l6 6
l9.5 9.5l9.5 9.5l15.5 15l15.5 15l39 38.5l39 38.5l27.5 27l27.5 27q8 6 14.5 13t15.5 11q11 5 27.5 4.5t31.5 -0.5q10 0 23 -0.5t16 -7.5q3 -5 -2 -12t-7 -9l-24.5 -23.5l-24.5 -23.5l-15.5 -15.5t-15.5 -13.5q-1 -2 -5 -6l-7.5 -7.5t-7.5 -6.5l-6 -6l-9 -9t-9 -8l-9 -9
l-12 -12t-13 -11q-3 -3 -5.5 -6t-5.5 -5q-10 -8 -17.5 -16.5t-17.5 -16.5q-2 -2 -4.5 -5t-5.5 -5q-4 -3 -7.5 -7t-7.5 -8q-2 -1 -6 -5l-10.5 -10.5t-9.5 -10.5q-2 -3 -4.5 -8.5t-0.5 -10.5q3 -11 10 -19.5t13 -16.5l22 -30l22 -30l76.5 -105l76.5 -105l14 -17.5t13 -17.5
l13.5 -20.5t14.5 -18.5q4 -5 7 -10t5 -10q2 -6 -1 -9q-2 -8 -13 -8.5t-22 -0.5h-29q-4 0 -8 -0.5t-7 0.5t-6 0.5t-5 0.5q-15 4 -23 16l-39.5 54.5l-39.5 55.5l-52 73l-52 72l-46 64q-3 4 -9.5 9.5t-14.5 3.5q-12 -4 -21 -14t-17 -16q-8 -7 -15 -14t-15 -13q-2 -3 -6 -7
l-19.5 -17.5t-15.5 -20.5q-2 -5 -4 -15v-9q-1 -3 -0.5 -7t0.5 -8v-28v-108q0 -7 0.5 -15.5t0.5 -17.5t-1 -16.5t-4 -11.5q-6 -10 -20 -10.5t-29 -0.5q-9 0 -17.5 0.5t-13.5 4.5q-8 5 -8.5 18.5t-0.5 27.5v115v399v94q0 11 -0.5 23t4.5 19q4 7 15 10q2 1 4 0.5t4 0.5z" />
    <glyph glyph-name="L" unicode="L" 
d="M107 713q7 0 16 0.5t17.5 0t15.5 -2.5t10 -6q6 -8 6 -21v-27v-105v-321v-92v-24t3 -21q3 -7 11 -12q5 -2 13 -2.5t16 -0.5h51h180h56q7 0 14.5 0.5t13.5 -1.5q13 -4 17 -11q1 -3 2 -10t1.5 -14.5t-0.5 -15t-2 -11.5q-2 -7 -9 -11q-5 -4 -14.5 -4h-18.5h-66h-253h-65
q-14 0 -24 1.5t-15 9.5q-4 6 -4 15.5v18.5v72v273v217v62q0 9 0.5 18t3.5 14q4 6 15 10q2 1 4.5 0.5t4.5 0.5z" />
    <glyph glyph-name="M" unicode="M" horiz-adv-x="871" 
d="M109 713h61h19t15 -4q9 -6 12.5 -16t8.5 -21q8 -19 14.5 -38t14.5 -38q7 -18 13 -36.5t14 -36.5q6 -14 11 -29t11 -29q18 -45 34 -90.5t34 -90.5q2 -5 3.5 -10t3.5 -10q9 -22 17 -44.5t17 -44.5q4 -9 8 -21.5t13 -14.5q4 -1 6 0.5t4 3.5q5 5 7.5 11l5.5 13l16 42.5
l16 42.5l4 10.5l4 11.5q8 19 14.5 38.5t14.5 39.5q24 58 44.5 117t44.5 117q8 20 15.5 41t15.5 41q4 8 7.5 20t10.5 17q6 4 15.5 6t21.5 2.5t24 0t22 -0.5h18.5t14.5 -4q9 -5 10 -18t1 -28v-110v-418v-84q0 -11 0.5 -22t-4.5 -17q-3 -6 -9 -7.5l-14 -3.5h-16q-13 0 -24 0.5
t-16 8.5q-2 3 -2.5 6.5t-2.5 8.5v11q-1 6 -0.5 14t0.5 15v56v295v50.5t-1 49.5q0 10 -1 22t-11 12v-1q-7 -2 -11.5 -13t-7.5 -19q-7 -17 -13 -34.5t-14 -34.5q-2 -5 -3 -9t-3 -9q-8 -18 -13.5 -36.5t-13.5 -36.5q-7 -15 -12 -30.5t-11 -30.5q-20 -47 -36 -94.5t-35 -93.5
q-8 -18 -14 -36t-13 -36l-9.5 -20.5t-17.5 -13.5q-2 -1 -4.5 -0.5t-5.5 -0.5t-7 -0.5t-8 0.5h-20t-16 5q-8 5 -11.5 14.5t-8.5 19.5q-8 20 -15.5 41.5t-15.5 41.5q-8 18 -13.5 36.5t-13.5 36.5q-23 56 -43 113t-43 113l-15.5 42.5t-15.5 41.5q-5 11 -8.5 21.5t-10.5 18.5
q-1 2 -2 2.5t-2 1.5h-5q-1 -1 -2 -1.5t-2 -1.5q-2 -5 -2 -11t-2 -12v-11q-2 -6 -1 -13t1 -14v-54v-304v-79q0 -11 -0.5 -22t-5.5 -17q-5 -8 -17.5 -8.5t-26.5 -0.5h-12.5t-10.5 2q-13 4 -14.5 17t-1.5 30v116v400v94q0 11 -0.5 23t4.5 19q4 6 15 10q2 1 4.5 0.5t4.5 0.5z
" />
    <glyph glyph-name="N" unicode="N" horiz-adv-x="722" 
d="M106 713q18 0 40 0.5t33 -7.5q8 -6 15 -17.5l13 -20.5l26.5 -40.5l26.5 -41.5q7 -11 14.5 -21.5t14.5 -21.5l61 -95.5l62 -95.5q8 -14 17.5 -26.5t17.5 -26.5l34.5 -53.5l34.5 -52.5l12.5 -19.5t18.5 -11.5q5 2 5 3q5 6 5 17v21v79v306v60q0 7 -1 15t1 15v11q2 4 2.5 8
t2.5 7q6 8 18 8.5t26 0.5h12.5t11.5 -2q12 -5 13.5 -17.5t1.5 -29.5v-110v-419v-84q0 -11 0.5 -22t-4.5 -17q-4 -6 -9.5 -7.5t-13.5 -3.5h-26h-24.5t-20.5 4q-8 3 -12.5 10t-9.5 14l-16.5 25l-16.5 26l-71 107l-70 108l-38.5 59l-38.5 59l-69 105l-8 13.5t-11 11.5
q-2 1 -4 3t-5 1q-6 -2 -7 -8t-3 -12v-7q-2 -7 -1 -15.5t1 -16.5v-66v-318v-47q0 -5 0.5 -12t-1.5 -12v-8q-2 -10 -4 -14q-2 -5 -7 -6.5t-11 -3.5h-20q-14 0 -25 1t-16 9q-5 6 -5 16.5v21.5v81v418v108v25.5t5 21.5q3 5 12 9q2 1 5.5 0.5t5.5 0.5z" />
    <glyph glyph-name="O" unicode="O" horiz-adv-x="760" 
d="M720 371q1 -5 1 -14.5t-1 -14.5v-12q-2 -10 -2 -20.5t-2 -19.5q-2 -8 -3 -15t-2 -15q-5 -17 -9 -33t-10 -31q-30 -73 -78.5 -122t-126.5 -75q-11 -3 -22 -5t-22 -5q-5 -1 -9 -1t-8 -1l-33 -3q-3 -1 -13.5 -0.5t-13.5 1.5q-5 1 -9.5 0.5t-8.5 0.5h-11q-7 2 -13.5 2.5
t-13.5 1.5q-10 3 -19.5 4.5t-19.5 4.5l-20 8l-20 8q-61 27 -100.5 74.5t-65.5 110.5q-6 14 -9 29t-8 31q-2 4 -1.5 7t-1.5 8q-2 7 -2 15t-2 16q-2 4 -1.5 8t-0.5 7v21q-2 5 -2 14t2 14v13l3 36q2 6 2 12t2 12q4 16 7 31.5t9 29.5l15 37t18 34q28 45 66 78t90 54q11 5 23.5 8
t25.5 7q6 2 12.5 2t12.5 2q8 1 15.5 1.5t15.5 1.5q2 1 5 0t5 0q67 2 117 -13.5t88 -42.5q15 -10 29 -21t25 -25q3 -5 7 -8t7 -8l12 -16.5t11 -16.5q2 -5 4 -8.5l5 -8.5q4 -6 7 -12q8 -18 16 -38q2 -6 3.5 -11.5t3.5 -11.5q3 -10 5.5 -20.5t5.5 -21.5q2 -5 2 -10t1 -10
q2 -7 2 -14t2 -15v-6q1 -5 0 -10t1 -10zM626 339q2 5 2 17.5t-2 17.5v8q0 5 -0.5 9t-0.5 9q-2 5 -1.5 9.5t-1.5 9.5q-2 9 -3.5 18t-3.5 17q-5 14 -8.5 26.5t-8.5 24.5q-17 41 -46.5 74t-69.5 51q-22 10 -52 16q-14 4 -31.5 4.5t-34.5 0.5q-7 -1 -13.5 -1.5t-14.5 -1.5
l-28.5 -7.5t-26.5 -8.5q-54 -23 -85 -66t-50 -101q-4 -11 -5.5 -22.5t-4.5 -23.5q-1 -5 -1 -9.5t-1 -9.5q-2 -4 -1.5 -8.5t-0.5 -8.5v-9q-1 -5 -1 -18t1 -18q0 -4 0.5 -7.5t0.5 -7.5q2 -8 2.5 -17.5t2.5 -17.5q1 -4 0.5 -7.5t1.5 -7.5q3 -11 5 -22t7 -22t8.5 -21.5
t9.5 -20.5l9.5 -15.5l9.5 -15.5q31 -44 81 -69q14 -8 28.5 -12l31.5 -9q7 -2 13 -1.5t13 -1.5q6 -2 13.5 -1.5t15.5 0.5h10q5 1 10 1.5t10 0.5q14 3 26.5 5t23.5 7q51 21 83.5 55t53.5 85q5 13 8.5 27t7.5 28q2 6 2.5 12.5t2.5 13.5l3 33v9z" />
    <glyph glyph-name="P" unicode="P" horiz-adv-x="648" 
d="M607 524q2 -8 2 -21.5t-2 -20.5t-1 -13t-1 -13q-2 -6 -3 -12.5t-3 -12.5q-2 -8 -4.5 -15t-5.5 -14q-2 -3 -2.5 -5.5t-2.5 -4.5q-11 -20 -24 -36q-2 -4 -6.5 -8t-7.5 -6q-4 -2 -7 -5.5t-6 -5.5l-21 -12q-11 -8 -26 -12l-30 -8q-8 -2 -16 -2.5t-16 -2.5q-4 -1 -7.5 -0.5
t-6.5 -0.5q-5 -1 -9.5 0t-9.5 0h-151q-15 0 -32.5 0.5t-26.5 -6.5q-11 -8 -10.5 -29t0.5 -39v-147q0 -13 0.5 -32.5t-4.5 -27.5q-4 -6 -9.5 -7.5t-13.5 -3.5h-18q-15 0 -27 1t-17 10q-4 6 -4 16.5v20.5v607q0 11 -0.5 24.5t4.5 21.5q4 6 15 10q2 1 4 0.5t4 0.5h227
q38 0 74.5 -0.5t65.5 -9.5q45 -15 73 -39t46 -66q5 -11 7.5 -23t6.5 -25q2 -7 1 -13t1 -13zM513 488q4 14 1 32.5t-6 29.5q-10 28 -26.5 44.5t-42.5 27.5q-22 9 -50.5 11t-59.5 2h-129q-2 -1 -4.5 -1t-5.5 -1q-12 -3 -16 -13t-3.5 -26.5t0.5 -30.5v-120q0 -15 -0.5 -33
t5.5 -28q5 -8 15.5 -9.5t23.5 -1.5h135q15 0 31 0.5t28 3.5q27 7 47.5 16.5t34.5 29.5q8 12 12.5 25t8.5 29q1 4 1 13z" />
    <glyph glyph-name="Q" unicode="Q" horiz-adv-x="760" 
d="M720 373q1 -5 1 -14.5t-1 -14.5v-11q-2 -6 -1.5 -12.5t-1.5 -11.5q0 -9 -1 -13q-2 -8 -2.5 -16.5t-2.5 -16.5l-4 -15.5l-4 -15.5l-16 -44.5t-20 -40.5q-5 -9 -11 -18.5t-13 -18.5l-10 -11.5t-8 -13.5q-5 -14 5 -23t17 -14q5 -5 10.5 -9.5t11.5 -8.5q5 -5 10.5 -9t10.5 -9
l5 -7.5t1 -11.5q-2 -8 -6.5 -13l-9.5 -11q-3 -5 -7 -9.5t-9 -6.5q-6 -2 -11.5 -1t-10 4t-8.5 6.5t-7 5.5q-11 8 -22 17t-22 17q-8 6 -14.5 11.5t-16.5 8.5q-8 2 -14 -1t-11 -5q-11 -5 -21 -8t-21 -7q-14 -5 -28 -6.5t-29 -5.5q-5 0 -10.5 -0.5t-11.5 -0.5q-2 -1 -4.5 -0.5
t-4.5 0.5q-5 -2 -17 -2t-17 2h-10q-10 2 -19.5 2t-18.5 2t-18 3.5t-17 4.5l-27.5 9.5t-26.5 9.5q-14 7 -29 17q-83 53 -126 150q-5 11 -8 21.5t-7 21.5q-2 4 -2 7.5t-1 7.5q-3 9 -5 19l-4 20q-2 5 -1.5 10.5t-1.5 10.5t-1 10t-1 10v8q-2 6 -2 20.5t2 20.5v13q0 7 0.5 14
t1.5 14q2 7 2 13.5t2 13.5q4 15 6.5 29.5t7.5 28.5q51 153 193 211q17 8 35 11t38 8l30 3q3 0 6 -1t5 1q64 1 112 -13t86 -38q8 -5 15 -10.5t15 -10.5q2 -2 4.5 -5t5.5 -5q6 -5 11 -11q3 -2 7 -6t7.5 -8t6.5 -8l22.5 -31t19.5 -34q7 -14 12.5 -29t10.5 -32q4 -12 6.5 -24.5
t6.5 -25.5l3 -27q1 -7 1.5 -14t1.5 -15v-12zM625 320q2 8 2 17.5v19.5v10t-1 9v8v9.5t-1 9.5q-2 5 -1.5 9t-1.5 9l-4 22t-5 21q-2 5 -2.5 8.5t-2.5 7.5q-3 10 -6.5 19.5t-7.5 18.5q-2 5 -5.5 10t-6.5 10q-4 6 -7 12t-7 12q-15 20 -38 39.5t-47 30.5q-13 6 -27 9.5l-29 7.5
q-13 4 -29.5 4h-33.5q-2 -1 -3.5 -0.5t-3.5 0.5q-6 -1 -11.5 -1.5t-11.5 -1.5q-14 -4 -26.5 -6.5t-24.5 -7.5q-53 -23 -84.5 -64.5t-50.5 -98.5q-4 -11 -6 -22.5t-5 -23.5q-1 -5 -1.5 -10t-1.5 -10t-0.5 -10.5t-1.5 -10.5v-9q-1 -5 -0.5 -12.5t0.5 -13.5q0 -15 1 -29.5
t4 -27.5q2 -6 2 -12t2 -11q4 -13 7 -25.5t8 -24.5q11 -27 25 -49.5t34 -42.5l8 -8t9 -8q5 -5 11 -8.5t13 -8.5q3 -2 6 -3t6 -3q14 -8 29.5 -12.5t32.5 -8.5q6 -2 12 -1.5t13 -1.5q5 -2 14 -2.5t14 1.5h12q4 1 7.5 0.5t7.5 0.5q9 2 18.5 3.5t17.5 4.5l9.5 5.5t6.5 9.5
q1 5 -4 11t-8 8l-10.5 8.5t-10.5 9.5l-8 6t-7 8q-2 3 -3 8t1 10q2 6 6 9.5t7 8.5q7 11 15 16q11 6 19 1.5t15 -9.5q13 -9 24.5 -18.5t24.5 -18.5q4 -3 10.5 -6.5t14.5 -0.5q12 4 22.5 20t16.5 27q3 5 4.5 8.5l3.5 8.5q12 28 21 58q2 5 2 10.5t2 11.5t2 13t2 13q0 2 0.5 4.5
t0.5 5.5z" />
    <glyph glyph-name="R" unicode="R" horiz-adv-x="685" 
d="M638 26q5 -13 -4 -20q-5 -3 -12.5 -3.5t-15.5 -0.5h-32t-25 7q-8 5 -10.5 15.5t-4.5 21.5q-1 4 -1 7.5v6.5q-2 5 -1 9t0 8q-1 6 -1 12v12l-3 45q-2 7 -2 14t-2 15q-5 18 -7.5 36t-9.5 34q-19 42 -63 56q-13 5 -28.5 5.5t-32.5 0.5h-184l-12.5 -3.5t-9.5 -6.5
q-7 -10 -6.5 -32.5t0.5 -39.5v-145q0 -14 1 -34.5t-4 -30.5q-2 -7 -8 -9q-4 -2 -7.5 -2t-8.5 -2q-4 -1 -9 -0.5t-10 0.5q-11 0 -21.5 0.5t-17.5 5.5q-8 5 -8 18.5v26.5v608q0 11 -0.5 23t4.5 19q4 6 15 10q2 1 4 0.5t4 0.5h290q7 0 15 0.5t14 -0.5h11q6 -1 12 -1.5t13 -1.5
q8 -2 16.5 -3t16.5 -3q19 -6 35 -13t30 -17q25 -17 40.5 -41.5t25.5 -57.5q2 -8 2.5 -16.5t2.5 -16.5v-10q1 -5 0.5 -11.5t-1.5 -11.5v-11q-2 -8 -2.5 -15t-2.5 -14l-9.5 -28.5t-12.5 -25.5q-3 -5 -6.5 -9t-6.5 -9q-1 -1 -2 -1.5t-2 -1.5q-2 -2 -4.5 -5t-4.5 -5l-15 -11.5
t-15 -10.5q-5 -3 -9 -6.5t-5 -9.5t4.5 -10t9.5 -6q11 -7 20.5 -15t16.5 -19q11 -14 16 -31.5t10 -37.5l2 -15.5l2 -15.5q2 -7 1 -14t1 -14v-9q2 -7 1 -15t1 -16q1 -4 0.5 -7.5t0.5 -8.5q2 -10 3 -20.5t4 -19.5q2 -6 2.5 -11.5t2.5 -11.5zM517 441q7 11 10.5 23t6.5 26v9
q3 14 1 30.5t-6 27.5q-16 50 -63 69q-20 8 -46.5 9t-54.5 1h-165q-2 -1 -4.5 -1t-5.5 -1q-12 -3 -16 -13q-4 -9 -3.5 -25t0.5 -29v-115q0 -15 -0.5 -31.5t6.5 -25.5q5 -7 15 -8.5t22 -1.5h62q39 0 76 -0.5t68.5 4t56.5 16.5t40 36z" />
    <glyph glyph-name="S" unicode="S" horiz-adv-x="648" 
d="M306 728q57 2 101 -9t78 -33q6 -4 11.5 -7t10.5 -8q2 -2 4 -3.5t4 -3.5t5 -4.5t5 -5.5l8 -10l8 -10t6.5 -10.5t5.5 -10.5q9 -14 14 -31.5l10 -36.5q2 -8 1.5 -17.5t-3.5 -14.5q-5 -7 -16 -8t-23 -1h-9t-8 1q-5 1 -8.5 1t-7.5 2q-2 1 -4 2.5t-4 3.5q-6 9 -8.5 22t-7.5 23
q-17 40 -48 60q-23 16 -55 24q-6 2 -12 2.5t-12 2.5h-8q-8 2 -16 2h-16q-52 0 -87 -16q-20 -8 -36 -21.5t-24 -33.5q-4 -8 -5.5 -16.5t-3.5 -18.5q-2 -8 -1.5 -18t2.5 -17q7 -23 17.5 -35t29.5 -23q22 -14 49 -21l56 -15q9 -2 18 -3t18 -4q14 -4 29.5 -6.5t29.5 -7.5
q4 -1 7 -1.5t7 -1.5q9 -2 18 -4.5t18 -5.5q20 -7 39 -15t36 -19q22 -14 39.5 -32.5t28.5 -43.5q4 -9 6 -18t4 -19q2 -5 2 -11.5t2 -12.5v-11v-9q-1 -4 -1 -8v-8q-2 -8 -2.5 -16.5t-3.5 -16.5q-5 -15 -11 -29t-15 -26q-17 -26 -43 -44t-56 -32q-10 -4 -19.5 -7t-20.5 -6
q-11 -4 -23 -5.5t-24 -4.5q-5 -1 -10.5 -1t-10.5 -1q-6 0 -12 -0.5t-12 -0.5q-5 -1 -14.5 -1t-14.5 1h-11q-10 2 -20 2t-19 2q-4 1 -8 1.5t-9 1.5q-11 2 -20.5 4t-19.5 6q-49 16 -82.5 41t-57.5 65q-8 13 -13.5 27t-10.5 30q-2 6 -2.5 12t-2.5 11q-2 9 -2 20.5t5 16.5
q5 7 16.5 8t22.5 1h8.5t7.5 -1q5 -1 8 -0.5t7 -1.5q7 -4 9 -8q3 -5 3.5 -10.5t2.5 -11.5q2 -7 3.5 -14t4.5 -14q17 -43 51 -68q17 -13 37 -21t43 -15q8 -2 16 -3l16 -2q2 0 5 -0.5t6 -0.5q4 -1 9.5 0t10.5 -1q4 -1 11.5 -1t12.5 2h7q5 1 10 1t10 1q3 1 5.5 0.5t6.5 1.5
q8 2 17 3.5t17 4.5q26 11 46.5 25.5t31.5 39.5q3 8 5 16l4 16t2 19t-2 18q-2 5 -2 8.5t-2 7.5q-6 17 -16 28.5t-24 21.5q-21 15 -47 24t-54.5 15.5t-58.5 12.5t-58 14q-16 5 -32 8.5t-30 9.5q-2 1 -3 1t-3 1l-20 8t-19 10q-23 14 -42 30.5t-30 42.5q-5 9 -7 19.5t-5 21.5
q0 4 -0.5 7t-0.5 6q-3 12 -1 30.5t5 28.5l5.5 21t6.5 19q14 30 36 50.5t49 37.5q2 2 5 2.5t5 2.5q22 11 51 19q8 2 15 3.5t15 3.5t17.5 2t17.5 2q3 1 9 0t8 1z" />
    <glyph glyph-name="T" unicode="T" horiz-adv-x="574" 
d="M31 714h418h76h20t17 -4q8 -5 9.5 -13.5t1.5 -21.5v-12q-2 -8 -3.5 -13t-6.5 -9q-8 -5 -22 -5h-27h-114q-11 0 -21.5 0.5t-19 -1t-14.5 -6t-9 -13.5t-2 -23t1 -25v-97v-316v-106q0 -15 -1.5 -27t-11.5 -17q-5 -2 -12 -2.5t-15 -0.5h-27.5t-19.5 7q-6 8 -6.5 19t-0.5 24
v89v329v99q0 11 0.5 25.5t-2.5 23.5q-5 16 -22.5 17t-37.5 1h-110q-12 0 -27.5 -0.5t-23.5 2.5l-6 4t-5 5q-3 4 -4 13t-0.5 18t2.5 17t5 11q2 3 5.5 4.5t7.5 2.5q2 1 4 0.5t4 0.5z" />
    <glyph glyph-name="U" unicode="U" horiz-adv-x="722" 
d="M102 713q14 0 33.5 0.5t25.5 -7.5q8 -9 7.5 -27t-0.5 -34v-150v-186q0 -35 1 -68.5t10 -59.5q13 -39 37 -64t61 -41q11 -5 23 -6.5t24 -4.5q6 -1 12.5 -1.5t12.5 -1.5h10q6 0 12.5 -0.5t11.5 1.5q5 1 10.5 0.5t10.5 0.5q12 3 23 5t22 7q38 15 59.5 39t34.5 64
q8 25 9.5 56.5t1.5 64.5v164v173q0 17 -0.5 38.5t7.5 30.5q5 7 18.5 7h26.5q5 0 9.5 -0.5t9.5 -0.5q14 -3 18 -10q5 -8 4.5 -23t-0.5 -27v-138v-208q0 -37 -1 -73t-9 -65q-14 -49 -36.5 -83.5t-60.5 -58.5q-15 -9 -32 -16t-36 -13q-9 -3 -18 -4.5t-19 -3.5t-20.5 -2
t-20.5 -2h-12q-5 -1 -16 -1t-16 1h-12q-7 2 -14.5 1.5t-14.5 1.5h-8q-8 2 -15.5 3t-15.5 3l-33.5 9.5t-31.5 11.5q-7 3 -13.5 7t-13.5 9q-30 19 -50 45t-34 61q-6 15 -9 31t-7 33q-1 8 -1.5 15.5t-1.5 15.5v10q-2 8 -1 16.5t1 16.5v65v261v68v18t4 15q4 7 15 10q6 0 8 1z
" />
    <glyph glyph-name="V" unicode="V" horiz-adv-x="611" 
d="M33 712q16 0 35 0.5t29 -5.5q9 -6 12.5 -19t7.5 -24q8 -20 14 -40.5t14 -40.5q2 -5 3 -10l2 -10q7 -17 12.5 -35.5l11.5 -37.5l27.5 -81l27.5 -81q7 -20 12.5 -40.5t13.5 -40.5q2 -5 3.5 -11t3.5 -12q11 -29 20 -60q4 -10 7 -20.5t9 -18.5q2 -2 7 -6q12 1 15 10.5t7 18.5
q11 26 18 53t17 53q6 16 10.5 32t10.5 32q5 12 8.5 24.5t8.5 24.5q15 42 28 85t29 85q2 4 2 7.5t2 7.5q6 15 11 31l10 31q6 15 10.5 30.5t10.5 31.5q3 9 6.5 17.5t11.5 13.5q6 5 16.5 5h21.5h22l14 -3.5t8 -9.5q0 -2 0.5 -4.5t-0.5 -4.5q-2 -10 -5.5 -19.5l-6.5 -17.5
q-4 -8 -6.5 -16.5t-5.5 -16.5q-6 -14 -10.5 -29.5t-10.5 -29.5q-2 -4 -2 -7t-2 -7q-8 -17 -13.5 -36t-13.5 -36q-2 -4 -2 -7.5t-2 -6.5q-5 -13 -9.5 -26.5t-9.5 -26.5q-2 -3 -2.5 -6.5t-2.5 -7.5q-15 -38 -27.5 -77t-27.5 -77l-3 -9l-7.5 -21.5l-7.5 -21.5q-5 -12 -9 -24.5
t-9 -24.5l-4 -12l-4 -12q-6 -15 -11 -31t-11 -30q-5 -13 -9.5 -27.5t-14.5 -21.5q-4 -2 -9 -3t-11 -2h-28q-12 0 -26 -0.5t-22 4.5q-9 5 -12 14.5t-8 20.5q-6 15 -11 31.5t-12 32.5q-2 4 -2.5 8t-2.5 8q-8 20 -14.5 40.5t-14.5 39.5q-2 5 -2.5 9t-2.5 8l-10 27.5l-10 27.5
q-2 4 -2.5 8t-2.5 8q-5 13 -9.5 26.5l-9.5 27.5q-5 11 -8 22.5t-8 22.5q-11 28 -20 57.5t-21 57.5q-4 9 -6.5 18.5t-5.5 17.5q-3 6 -4.5 12.5t-4.5 12.5q-9 23 -16.5 47t-16.5 47q-2 7 -4.5 14t-4.5 15q-4 10 -1 17t14 9q2 1 4 0.5t4 0.5z" />
    <glyph glyph-name="W" unicode="W" horiz-adv-x="926" 
d="M44 712q17 0 34 0.5t27 -7.5q8 -5 10 -16l4 -21q4 -14 7 -27.5t7 -27.5q2 -5 2 -10t2 -10q5 -17 7.5 -33t7.5 -33q5 -14 7 -28.5t7 -28.5q12 -43 21 -87t21 -88l3 -18q7 -23 11.5 -47.5t12.5 -47.5l5 -19.5t13 -11.5q2 2 3.5 2.5t2.5 2.5q6 8 8.5 19.5t5.5 22.5
q5 15 9 30.5t9 30.5q2 5 2 9.5t2 9.5q5 14 8 29t8 29q2 5 2 8.5t2 8.5q4 12 6.5 24.5t7.5 25.5q2 9 4.5 18l5.5 19q11 35 19.5 72t19.5 72q2 5 2 9t2 9q6 17 10 34.5t10 34.5q3 11 5 20.5t10 14.5q8 6 23.5 6h29.5q8 0 15.5 0.5t13.5 -1.5q14 -4 17 -14t8 -23t7.5 -26.5
t7.5 -27.5q1 -3 1 -6t2 -7q5 -14 8.5 -30t8.5 -30q1 -5 1 -8t2 -7q4 -12 6.5 -24.5t6.5 -24.5q2 -3 2 -6t1 -7q4 -11 6 -21.5t6 -21.5l4 -15.5l4 -15.5q9 -28 15.5 -57t15.5 -58q2 -5 2.5 -11t2.5 -11q7 -19 11.5 -39t10.5 -39l5 -18t11 -12q3 -1 5 1t3 4q4 5 6 11t4 14
q6 19 10.5 39t9.5 40q2 7 3 13.5t3 14.5q6 17 9.5 35.5t8.5 37.5q14 48 24.5 98t24.5 98q4 15 7 30.5t8 30.5q4 15 6.5 30t7.5 29q2 8 4.5 16t7.5 12q7 5 17 6t21 1h21q3 0 5.5 -0.5t5.5 -0.5q6 -2 10.5 -8t2.5 -16q-4 -14 -7.5 -28t-7.5 -28q-3 -9 -5 -18t-5 -18
q-5 -13 -7 -26t-6 -26q-6 -17 -10.5 -36t-9.5 -36q-2 -5 -2.5 -10t-2.5 -10q-5 -14 -8 -28.5t-8 -28.5q-2 -5 -2 -9t-2 -9q-4 -12 -6.5 -24.5t-6.5 -23.5q-2 -4 -2 -7t-1 -6q-4 -12 -6.5 -24.5t-6.5 -24.5q-3 -8 -5 -17.5t-5 -18.5q-9 -27 -15.5 -55.5t-14.5 -55.5
q-2 -5 -2 -9t-2 -9q-5 -14 -8.5 -29.5t-8.5 -29.5l-6 -21.5t-11 -15.5q-7 -5 -19 -5h-24h-24q-7 2 -11.5 2.5t-9.5 4.5q-6 5 -8.5 13t-4.5 16q-5 14 -8 28t-8 28q-2 4 -2 7.5t-2 7.5q-5 17 -9 35.5t-10 36.5q-5 15 -8.5 31t-8.5 31q-4 11 -6 22t-6 22q-12 38 -21 76.5
t-21 75.5q-2 5 -2.5 10.5t-2.5 11.5q-7 20 -11.5 40t-11.5 40q-2 8 -5.5 19t-14.5 11q-1 -2 -2 -2t-3 -2q-6 -8 -8.5 -20t-6.5 -23q-5 -17 -9.5 -34t-9.5 -34q-2 -4 -2 -7t-2 -7q-5 -14 -7.5 -28.5t-7.5 -29.5q-4 -10 -6 -19.5t-5 -20.5q-11 -34 -19.5 -69.5t-19.5 -69.5
q-2 -4 -2 -7.5t-2 -7.5q-5 -14 -8 -29t-8 -30q-2 -5 -2.5 -8.5t-2.5 -8.5q-5 -17 -9.5 -34t-9.5 -34q-4 -11 -6.5 -22.5t-11.5 -16.5q-8 -5 -21.5 -5h-26.5q-7 0 -14 -0.5t-13 1.5q-17 4 -20 16.5t-8 28.5q-7 21 -11.5 43t-11.5 43q-2 5 -2.5 10.5t-2.5 10.5
q-8 23 -12.5 47.5t-12.5 47.5q-1 5 -1.5 9t-2.5 9q-5 15 -8 31.5t-8 31.5q-2 4 -2 7.5t-2 7.5q-3 11 -5.5 22.5t-6.5 22.5q-1 4 -1.5 7t-1.5 7q-3 10 -5 20t-5 21q-3 8 -4.5 17t-4.5 18q-8 22 -12.5 45t-11.5 45q-2 6 -3 12t-3 13q-5 17 -9.5 36t-9.5 37q-2 6 -4.5 17.5
t2.5 18.5q3 6 13 8q2 1 4 0.5t4 0.5z" />
    <glyph glyph-name="X" unicode="X" horiz-adv-x="611" 
d="M52 713h35q4 0 8.5 0.5t8.5 -0.5q5 -2 8.5 -1.5t7.5 -1.5q7 -3 13.5 -9.5t12 -15t10.5 -17.5t9 -15l44 -68.5l44 -68.5l15 -23.5l15 -23.5q4 -5 7.5 -11t11.5 -8t12.5 2t6.5 8q9 11 16.5 23l15.5 24l43.5 63.5l42.5 63.5l14 21l14 21q5 7 9 13.5t9 12.5q11 11 27.5 11
h37.5q9 0 18.5 -1t11.5 -8q4 -5 -0.5 -13t-6.5 -11q-9 -15 -19.5 -29.5l-20.5 -29.5l-46.5 -69l-47.5 -69l-16 -24l-16 -24t-17 -24t-16 -26q-2 -4 -5 -9.5t-1 -13.5q2 -11 8 -18.5l12 -15.5l5.5 -9.5t6.5 -9.5l10 -14l10 -14l61.5 -91l61.5 -91l22 -31.5l22 -32.5
q2 -2 6.5 -11t1.5 -14q-2 -7 -12 -8t-19 -1q-23 0 -41.5 -0.5t-31.5 10.5q-5 5 -8.5 11l-6.5 11q-8 11 -15 23t-15 24l-46 69l-45 69l-16.5 26t-17.5 25q-3 4 -7.5 8.5t-12.5 2.5q-7 -2 -11 -7.5l-8 -10.5q-8 -11 -15 -22t-15 -22l-59 -87.5l-59 -87.5q-8 -11 -15 -23
t-21 -17q-8 -3 -21 -2.5t-24 0.5h-17t-14 4q-7 4 -5.5 12t4.5 13q7 11 14 20.5l14 19.5q4 6 7 12t8 11q25 35 48.5 71.5t48.5 71.5q6 8 11.5 17l11.5 18q8 13 17 25.5l18 25.5q6 10 13 19t10 22q2 8 -1.5 13.5t-5.5 10.5l-15.5 23l-15.5 23l-63.5 94l-63.5 94l-20.5 29.5
t-19.5 29.5l-6 12t0 13q3 5 12 7q2 1 4.5 0.5t4.5 0.5z" />
    <glyph glyph-name="Y" unicode="Y" horiz-adv-x="648" 
d="M40 713q15 0 37 1t33 -4q8 -4 12.5 -10l9.5 -13l12 -20t13 -20l55.5 -87l54.5 -87l19.5 -31l19.5 -30q4 -7 8.5 -13.5t12.5 -8.5t13.5 3.5t7.5 9.5q10 14 18.5 29t17.5 29l53 86l53 85l15.5 25.5t15.5 24.5q4 7 8 13t10 11q9 7 25.5 7h33.5q8 0 16 -0.5t13 -4.5
q7 -5 3.5 -14.5t-6.5 -13.5l-15 -23.5t-15 -22.5q-5 -7 -9 -14l-9 -15l-68 -103l-66 -105l-21 -31.5l-21 -32.5l-13.5 -20.5t-11.5 -23.5q-2 -6 -2 -13.5v-15.5v-40v-143q0 -8 1 -17t-1 -17v-17q-3 -18 -14 -23q-3 -2 -6 -1.5t-7 -0.5t-8.5 -0.5t-9.5 0.5h-24t-17 7
q-4 4 -5.5 13.5t-2 20t0 21.5t0.5 20v133v35v9.5t-1 8.5v13q-5 17 -12.5 28.5l-15.5 24.5l-39 60l-66 101.5l-66 101.5l-25.5 38.5l-25.5 38.5q-7 9 -10 19q-2 7 1 10q1 5 5.5 6t9.5 3q1 0 2.5 -0.5t2.5 0.5z" />
    <glyph glyph-name="Z" unicode="Z" horiz-adv-x="611" 
d="M85 713h371h77q15 0 26 -1.5t16 -12.5q3 -6 3 -15v-17v-8.5t-1 -7.5q-1 -4 -0.5 -7t-1.5 -6q-5 -14 -13.5 -23.5t-16.5 -20.5q-11 -15 -22 -28.5t-22 -28.5q-3 -4 -7 -7.5t-7 -7.5q-26 -35 -54.5 -69t-54.5 -69q-8 -11 -17.5 -22t-18.5 -23q-11 -15 -23.5 -29.5
t-23.5 -29.5q-3 -4 -6 -7t-6 -7q-8 -11 -17 -22t-17 -22q-4 -5 -8 -9t-7 -9l-26 -32.5l-26 -32.5q-7 -10 -17 -20.5t-13 -23.5q-2 -8 4 -10.5l11 -4.5q7 -2 15 -1.5t16 0.5h51h224h66h18t17 -2q6 -2 12 -9q2 -3 3 -10t1.5 -15t-0.5 -15.5t-2 -11.5q-4 -7 -8 -10
q-6 -5 -16.5 -5h-21.5h-81h-316h-75h-19t-16 4q-6 3 -7.5 9l-3.5 14v15v17t2 16q4 12 11 20.5l14 17.5q8 11 17 22l18 22q2 3 5 5.5t5 5.5q29 39 59.5 75.5t59.5 75.5l18.5 22t18.5 23q2 3 5 6t5 6q8 11 17 22t17 22q4 5 8 9.5t8 9.5q10 13 20.5 25t20.5 26q3 5 7 9t8 9
q14 20 30 38t30 38l9.5 11.5t9.5 13.5l2.5 5t0.5 7q-2 7 -6.5 8.5t-11.5 3.5h-6q-5 2 -11.5 1.5t-11.5 -0.5h-44h-199h-57h-16.5t-14.5 2q-7 4 -10 9q-2 4 -3.5 12t-1.5 17t1.5 17t3.5 11q4 5 13 9q2 1 5 0.5t5 0.5z" />
    <glyph glyph-name="bracketleft" unicode="[" horiz-adv-x="259" 
d="M112 731h71q8 0 17.5 0.5t17.5 -1.5h15q17 -3 22 -14q3 -6 3 -16q0 -13 -3 -21.5t-12 -12.5q-7 -3 -17.5 -3t-21 1t-21 1t-17.5 -3q-11 -7 -14 -18q-3 -10 -2 -25.5t1 -27.5v-107v-347v-174v-48v-16t2 -14q6 -13 22.5 -14t35.5 -1q4 0 8.5 0.5t7.5 -0.5h8q5 -2 10 -3.5
t8 -5.5t4 -11t1 -14t-1.5 -13.5t-4.5 -10.5q-2 -3 -6.5 -4.5t-9.5 -2.5q-8 -2 -19 -1.5t-19 0.5h-79q-12 0 -24 0.5t-17 7.5q-7 10 -6.5 28t0.5 33v147v515v130q0 14 -0.5 30.5t5.5 24.5q3 5 8 6.5l12 3.5q3 1 8 0t7 1z" />
    <glyph glyph-name="backslash" unicode="\" horiz-adv-x="333" 
d="M15 729h18t15 -4q10 -6 14 -17.5t9 -22.5l17.5 -44l17.5 -44q11 -26 20.5 -52t20.5 -52l46.5 -115.5l45.5 -115.5q11 -25 20 -50t20 -49q14 -33 26 -66.5t26 -65.5l4.5 -11.5t3.5 -13t-1 -11.5t-8 -8q-10 -5 -26 -3t-23 7q-9 6 -13 17.5l-8 22.5q-10 23 -18.5 47
t-18.5 47q-12 27 -22.5 55t-22.5 56l-67.5 170.5l-67.5 170.5q-11 26 -20 52t-20 52q-3 6 -8 18.5t-1 20.5q3 6 13 8q2 1 4 0.5t4 0.5z" />
    <glyph glyph-name="bracketright" unicode="]" horiz-adv-x="259" 
d="M42 731h71q8 0 17.5 0.5t17.5 -1.5h13q6 0 12 -2t9 -6q6 -8 6 -23v-29v-119v-467v-207q0 -12 0.5 -31t-3.5 -28q-4 -10 -19 -13q-7 -2 -17.5 -1.5t-18.5 0.5h-83q-15 0 -26 1.5t-16 12.5q-3 7 -3 17q0 13 3 21t12 12q4 2 7.5 1.5t8.5 0.5q3 1 7 0.5t8 -0.5q16 0 32.5 0.5
t23.5 9.5q5 8 5 20v24v94v423v134v42v21q-3 17 -12 22q-6 4 -17 4t-22.5 -0.5t-22.5 -0.5t-18 3q-8 4 -11 9t-4 12.5t0 15t3.5 14t6.5 9.5q3 2 7 2.5t8 1.5q3 1 8 0t7 1z" />
    <glyph glyph-name="asciicircum" unicode="^" horiz-adv-x="600" 
d="M291 694h19t15 -3q7 -4 10 -9.5t8 -12.5q5 -8 9.5 -17.5t9.5 -18.5q2 -3 2.5 -6t2.5 -6q9 -14 16 -29.5t15 -30.5q2 -5 4 -9l4 -8q8 -14 14.5 -28l13.5 -28l29 -56l28 -56l13 -26.5l13 -26.5l7.5 -13.5t6.5 -13.5q4 -8 5 -16.5t-7 -13.5q-3 -2 -6.5 -2t-8.5 -1
q-8 -2 -17 0q-3 1 -5.5 1t-5.5 2q-11 5 -16.5 16l-10.5 22l-56.5 111.5l-56.5 112.5q-8 15 -15 31t-16 30q-2 4 -7 10t-13 4q-7 -2 -10 -8.5t-7 -11.5q-7 -11 -12 -23.5t-12 -24.5q-8 -15 -14.5 -30t-14.5 -30l-17 -33l-16 -33q-3 -7 -6.5 -13.5l-7.5 -14.5q-5 -8 -8.5 -17
t-8.5 -18q-2 -4 -4 -7.5t-4 -7.5l-9.5 -19.5l-9.5 -19.5l-7.5 -13t-9.5 -11q-3 -2 -6.5 -2.5t-8.5 -2.5q-8 -2 -18 -1t-15 4q-9 5 -7 14t5 17q6 12 14 26l13 26.5l12 25.5l52.5 102.5l51.5 102.5q10 18 18.5 36.5t18.5 36.5q5 8 9 18.5t12 15.5q6 4 14 6q2 1 4.5 0.5
t4.5 0.5z" />
    <glyph glyph-name="underscore" unicode="_" horiz-adv-x="500" 
d="M28 -76h364h62q11 0 21 -0.5t16 -5.5q3 -2 6 -9t1 -12q-3 -14 -10 -17q-6 -4 -15.5 -4h-19.5h-70h-258h-73q-10 0 -20 -0.5t-17 2.5q-8 4 -11.5 13t0.5 20q3 5 5 7q5 4 11 5q2 1 4 0.5t4 0.5z" />
    <glyph glyph-name="grave" unicode="`" horiz-adv-x="222" 
d="M23 730q14 0 31 0.5t28 -4.5q8 -3 12.5 -9.5t8.5 -13.5q9 -14 17 -28t17 -28l10.5 -17t10.5 -19q1 -3 1 -8t-2 -7q-3 -5 -10.5 -6.5t-15.5 -0.5t-15 3t-11 4q-5 4 -9.5 8.5t-8.5 9.5l-6 6q-2 3 -4.5 5.5t-4.5 5.5q-3 2 -5.5 5t-4.5 5q-8 11 -18.5 21t-18.5 21
q-6 8 -15 15.5t-9 21.5q2 3 3.5 4.5t6.5 3.5q3 1 6.5 0.5t5.5 1.5z" />
    <glyph glyph-name="a" unicode="a" horiz-adv-x="537" 
d="M520 38q3 -16 -3 -26.5t-16 -15.5q-5 -2 -10.5 -2t-11.5 -2q-22 -5 -43.5 2.5t-29.5 18.5q-5 7 -9 16.5t-10 15.5q-2 2 -4.5 4t-6.5 1q-11 -3 -20.5 -11t-18.5 -14q-13 -8 -28 -14.5t-32 -11.5q-10 -3 -21.5 -4t-22.5 -3q-5 -1 -8.5 -1h-7.5q-11 -2 -21 0h-9q-5 1 -10 1
t-9 2q-4 1 -6.5 0.5t-5.5 0.5q-8 2 -16 3.5t-15 4.5q-30 13 -48.5 29.5t-30.5 46.5q-9 22 -9 53v21q1 5 1.5 10.5t1.5 11.5l8 22t10 20q18 29 49 43t68 25q14 4 29 6t30 5q7 2 13.5 2t14.5 2q7 2 14 2.5t15 2.5q25 6 47 10.5t35 22.5q6 8 10 20.5t0 27.5q-6 24 -17.5 38
t-32.5 22q-12 5 -28.5 7t-34.5 2t-35 -2t-29 -6q-17 -6 -33 -17q-8 -6 -14.5 -15.5t-11.5 -20.5q-3 -8 -5.5 -17t-9.5 -14q-4 -3 -13.5 -4.5t-19.5 -1.5t-19.5 1.5t-13.5 4.5t-6 10t0 15q3 13 6.5 24.5t8.5 22.5q19 35 48 54.5t72 31.5q10 2 20.5 3t21.5 3q4 1 13 0.5
t11 1.5q70 1 122 -16t73 -65q9 -20 10.5 -46.5t1.5 -55.5v-221q0 -14 1 -27t6 -21q5 -7 13 -10q9 -4 17 -5.5t12 -9.5q2 -3 2 -6t1 -8zM377 149q6 14 6.5 32.5t0.5 38.5q0 11 -1 20t-8 14q-3 2 -14 2q-2 -2 -7 -2t-9 -2q-8 -2 -18 -4l-20 -4q-3 0 -6.5 -0.5t-7.5 -0.5
q-15 -4 -32.5 -4.5t-32.5 -4.5l-14.5 -3.5l-14.5 -3.5q-16 -5 -30 -12.5t-24 -18.5t-15 -26.5t-4 -37.5q0 -10 3.5 -18.5t8.5 -15.5q8 -11 21 -18.5t28 -12.5q5 -1 10 -1t10 -1q7 -2 17.5 -2.5t17.5 1.5q6 2 12 1.5t12 1.5q8 2 15.5 3t14.5 4q29 12 49.5 29t31.5 46z" />
    <glyph glyph-name="b" unicode="b" horiz-adv-x="593" 
d="M556 270q1 -5 1 -13.5t-1 -13.5q0 -4 -0.5 -7.5t-0.5 -8.5q-2 -8 -2 -16t-2 -16q-1 -4 -1 -7.5t-1 -7.5l-5.5 -21t-6.5 -20q-14 -35 -34 -63t-50 -48q-15 -10 -29 -17q-11 -5 -21.5 -8l-21.5 -6q-7 -2 -13 -2.5t-12 -2.5h-10q-5 -2 -15 -2.5t-16 1.5h-10q-4 1 -8.5 1
t-9.5 1q-15 4 -29.5 7t-28.5 9q-20 8 -36 20l-12 10.5t-14 7.5q-6 1 -9.5 -2.5t-5 -9.5t-2 -12.5t-2.5 -9.5q-4 -5 -9 -9q-5 -2 -13.5 -2.5t-18 -0.5t-17.5 1.5t-12 3.5q-2 2 -4 5l-4 6q-3 8 -2.5 24t0.5 27v587q0 12 -0.5 25.5t4.5 21.5q4 6 13 10q2 0 5 0.5t5 0.5
q14 1 29.5 0.5t21.5 -8.5q5 -8 5 -22.5v-27.5v-117v-16.5t0.5 -19t2 -17t5.5 -10.5t9 -1t8 4q5 4 9.5 8t9.5 8q7 5 14.5 9l15.5 8q18 9 43 13t51 4t51 -4.5t44 -12.5q40 -17 69 -47t46 -70q5 -11 8.5 -21.5l7.5 -21.5q3 -11 4.5 -22.5t3.5 -22.5q1 -3 1 -6.5t1 -6.5
q2 -6 0.5 -11.5t0.5 -11.5zM467 244q2 5 1 12t-1 13q0 17 -1.5 32t-6.5 27q-3 10 -5 18t-6 16q-11 25 -30 46.5t-44 32.5q-8 3 -15.5 5.5t-15.5 4.5q-11 3 -22 3.5t-24 0.5q-5 -1 -9 -1.5t-9 -0.5l-17.5 -4t-16.5 -6q-34 -14 -54 -41.5t-32 -64.5q-4 -11 -5 -22t-4 -23
q-1 -5 0 -9t-1 -9q-1 -5 -1 -14.5t1 -14.5v-8q1 -4 1 -8t1 -7t1 -6.5t1 -6.5q2 -8 3.5 -16t3.5 -16q11 -34 30.5 -58t48.5 -40q9 -5 19 -7.5l21 -5.5q5 -2 9.5 -1.5t9.5 -0.5q4 -1 9 -1h9h9q4 1 7 1t7 1q8 2 15 3.5t15 4.5q31 13 50 34.5t32 52.5q5 14 7.5 28.5t6.5 29.5
q2 5 1.5 9.5t0.5 9.5v7z" />
    <glyph glyph-name="c" unicode="c" horiz-adv-x="537" 
d="M270 528q74 1 123.5 -21.5t78.5 -67.5q13 -20 22 -49q2 -5 3 -13t-1 -14q-3 -5 -10 -9q-3 -2 -6 -1.5t-7 -0.5t-8 -0.5t-8 0.5q-11 0 -21 0.5t-17 5.5q-8 6 -11 17t-8 19q-15 26 -39 41q-8 5 -17 8.5t-19 6.5q-14 4 -37 4.5t-38 -4.5q-7 -2 -13 -3t-13 -3
q-26 -11 -46 -30t-31 -45q-4 -9 -7 -18.5t-6 -20.5l-6 -27q-1 -5 -0.5 -11t-1.5 -11v-8q-1 -4 -1.5 -13t1.5 -13q1 -5 0 -10t0 -10q1 -4 1 -14q2 -8 3.5 -17t3.5 -17q11 -32 25.5 -55.5t40.5 -40.5q9 -5 18.5 -9t20.5 -8q5 -1 8 -1t8 -1q3 -1 10 -1h11q0 -1 4 -1q2 1 5 0.5
t6 0.5q7 2 13.5 1.5t13.5 1.5q26 8 45 20.5t32 32.5q5 8 9 17l8 18q2 8 4.5 15.5t9.5 12.5q3 3 12 4.5t19.5 2t20 -0.5t13.5 -4q6 -4 7.5 -12t-0.5 -17l-9.5 -28.5t-11.5 -26.5q-15 -30 -37.5 -53t-54.5 -37q-8 -4 -17 -6.5l-19 -5.5q-11 -4 -22 -4.5t-22 -2.5q-4 -2 -8 -1
t-8 0h-9q-8 0 -15.5 -0.5t-13.5 1.5h-5l-24 3q-13 4 -25 7t-23 8q-36 16 -59.5 38t-43.5 54q-5 8 -9 18l-8 20q-5 11 -7 23t-5 24q-1 4 -1 8t-1 8q-2 6 -1.5 13t-1.5 13v10q-1 5 -1 14t1 14t0.5 9t0.5 8q2 7 1.5 14t1.5 13q4 17 7 34t9 32q21 52 51 84t82 53q11 5 24 7t27 5
q7 1 14 1.5t15 1.5z" />
    <glyph glyph-name="d" unicode="d" horiz-adv-x="593" 
d="M525 55v-25.5t-5 -20.5q-5 -7 -16.5 -7.5t-23.5 -0.5q-6 0 -11.5 -0.5t-9.5 1.5q-9 2 -12 8q-4 5 -4.5 12t-3.5 14q-1 2 -2.5 3.5l-3.5 3.5q-10 1 -15.5 -4l-11.5 -10q-20 -15 -40 -23q-18 -8 -41.5 -12t-48 -4.5t-48.5 3t-42 11.5q-52 22 -84 59.5t-50 93.5
q-4 9 -5.5 18.5t-4.5 19.5q-1 5 -1 10t-1 10q-2 5 -1.5 10.5t-0.5 10.5v10q-2 5 -2 13t2 13v11q2 7 1.5 14.5t1.5 14.5q1 5 1 9t1 9q3 10 5 19.5t5 18.5q13 38 33.5 68.5t49.5 50.5q17 12 35.5 20t40.5 14l13.5 2t13.5 3h10q8 2 23.5 2t23.5 -2q4 -1 11 -1q11 -3 22 -4.5
t21 -6.5q15 -6 28.5 -13t25.5 -16l12.5 -10.5t17.5 -3.5q2 3 3.5 5t2.5 6q3 9 2.5 23t-0.5 25v115v31.5t5 25.5q4 7 12 9q2 0 5 0.5t5 0.5q14 1 29.5 0.5t21.5 -8.5q5 -8 5 -20v-25v-604zM444 244q2 5 2 13.5t-2 13.5v15q-2 9 -3 18.5t-4 17.5q-2 8 -3.5 15t-4.5 14
q-12 30 -31 53t-48 36q-10 5 -20.5 7.5t-22.5 4.5q-8 2 -17.5 2h-18.5q-5 -1 -9 -1.5t-9 -0.5l-16.5 -4t-16.5 -5q-32 -14 -51.5 -40.5t-31.5 -61.5q-4 -11 -5.5 -22.5t-3.5 -22.5q0 -4 -0.5 -7.5t-0.5 -7.5q-2 -5 -1.5 -11t0.5 -11v-21.5t2 -19.5q1 -3 1 -10q2 -7 3.5 -14
t3.5 -14q11 -35 30 -60t48 -41q9 -5 18 -8t20 -6q5 -2 10.5 -1t10.5 -1q4 -1 8.5 -1h8.5h9q3 1 10 1q8 2 16 3.5t15 4.5q33 14 53.5 35.5t34.5 54.5q5 11 7 22t5 22q2 4 2 7.5t1 7.5q1 6 0.5 12t0.5 12z" />
    <glyph glyph-name="e" unicode="e" horiz-adv-x="537" 
d="M511 279q2 -10 0.5 -22.5t-6.5 -17.5q-5 -4 -14.5 -5.5t-21.5 -1.5t-24 0.5t-21 0.5h-256q-8 0 -16 -0.5t-13 -3.5q-4 -2 -8 -8q-2 -3 -4 -8.5t0 -10.5q1 -5 1 -9t1 -8l4 -16.5t6 -16.5q23 -54 76 -77q6 -3 13 -5l14 -4q3 -1 10 -1q14 -4 37 -4t37 4t25.5 8.5t21.5 11.5
q11 7 19 16.5t14 20.5q6 10 10.5 21t15.5 16q4 2 13 3t18 0.5t17 -1.5t11 -4q10 -7 5 -23q-8 -27 -21 -48q-20 -32 -45.5 -52.5t-64.5 -33.5q-10 -4 -20 -5.5t-21 -3.5q-5 -1 -9.5 -1t-9.5 -1h-10q-5 -1 -11.5 -1t-10.5 1h-9q-5 1 -9 1t-8 1q-5 1 -11 1.5t-11 1.5
q-9 2 -18 4.5t-17 5.5q-4 2 -7 2.5t-7 2.5q-15 7 -32 17q-29 19 -49.5 46.5t-34.5 61.5q-5 11 -7.5 23t-6.5 24q-1 4 -1 7t-1 8q-2 8 -3 17t-3 18v14q-1 4 -1.5 11.5t0.5 12.5v11q2 5 1.5 10.5t0.5 10.5q4 16 6.5 32t8.5 30q5 11 9.5 22.5t10.5 22.5q22 35 50 60.5t69 42.5
q12 5 24.5 7.5l26.5 5.5q5 1 9 1.5t9 0.5q2 1 5 0t5 1q42 1 73 -8.5t56 -25.5q5 -2 8 -5.5t7 -5.5q8 -6 16.5 -14t14.5 -16q16 -21 27 -40q7 -11 11 -24t9 -26t7.5 -27t6.5 -28q1 -7 1.5 -14t1.5 -14zM414 313q3 4 5 10.5t0 13.5q-6 22 -17 41q-14 23 -31 39t-44 27
q-7 2 -14 3.5t-15 3.5t-17 2h-17q-3 -2 -7 -1.5t-7 -0.5q-8 -2 -15.5 -3.5t-14.5 -3.5q-29 -12 -46.5 -30t-31.5 -45q-3 -5 -6 -12.5t-5 -16.5t-1 -17t7 -12q8 -6 27.5 -5.5t33.5 0.5h152q15 0 36 -0.5t28 7.5z" />
    <glyph glyph-name="f" unicode="f" horiz-adv-x="296" 
d="M224 721q18 1 38 0t28 -12q4 -6 5 -14.5t1 -18.5q0 -13 -5 -21q-4 -5 -11.5 -6.5t-16.5 -1.5t-18.5 0.5t-16.5 -0.5q-28 -8 -36.5 -25.5t-8.5 -52.5q0 -7 -1 -14.5t1 -13.5q3 -15 13 -21q8 -3 20.5 -3h23.5h15q3 -2 6 -1t6 -1q10 -3 13 -11.5t3 -21.5q-1 -4 -1 -8v-8
q-3 -15 -13 -20q-13 -5 -33.5 -2.5t-34.5 -1.5q-8 -2 -12 -7.5t-6 -14.5q-2 -7 -1 -16t1 -17v-66v-212v-50q0 -6 0.5 -13t-1.5 -12v-8l-2 -8t-3 -7q-5 -7 -15 -8t-22 -1h-19q-5 2 -9.5 3.5t-7.5 6.5q-2 3 -4 13v7q-2 5 -1.5 10.5t0.5 10.5v40v273q0 11 0.5 23t0 22.5
t-4 18.5t-11.5 11q-6 3 -13.5 3h-15.5h-15.5t-13.5 2q-9 4 -13 17q-1 5 -1 9v9q0 14 3 22.5t13 11.5q7 3 16.5 2.5t19 -0.5t17 2t12.5 8q7 8 6.5 25t-0.5 32q0 20 2.5 37.5t8.5 31.5q11 24 29.5 39t44.5 23q6 2 12.5 2.5t13.5 2.5q2 1 7 0.5t7 0.5z" />
    <glyph glyph-name="g" unicode="g" horiz-adv-x="574" 
d="M502 509q7 -5 7.5 -15t0.5 -21v-418v-40q-2 -5 -1 -9.5t-1 -9.5q-2 -10 -2.5 -20.5t-3.5 -20.5l-5.5 -21t-7.5 -20q-10 -26 -25.5 -47t-36.5 -35q-17 -12 -36 -19.5t-41 -14.5q-9 -2 -18 -2.5t-18 -2.5q-3 0 -5.5 -0.5t-4.5 -0.5q-5 -1 -9.5 0t-9.5 -1q-7 -2 -21.5 -1.5
t-20.5 2.5q-3 0 -5.5 0.5t-4.5 0.5q-9 2 -18 2.5t-17 2.5t-16 4.5t-16 5.5q-32 13 -53.5 29t-38.5 45q-2 2 -2.5 4.5t-2.5 5.5q-3 8 -6.5 22.5t5.5 21.5q6 5 16.5 5h21.5h11.5t10.5 -2q9 -3 13 -10l9 -15l8.5 -12.5t9.5 -10.5q25 -19 60 -28q6 -2 12.5 -2.5t12.5 -2.5h6
q7 -2 17 -2t18 2q3 1 8 1q10 2 19 3.5t17 5.5q29 12 47.5 32.5t30.5 49.5q4 9 5.5 19t4.5 21q2 5 2 10t1 10q1 3 1 10q2 8 0 17q-1 5 -0.5 9t-1.5 7q-2 2 -3 2.5t-3 2.5q-10 0 -14.5 -5.5t-10.5 -9.5l-16 -13.5t-18 -11.5q-14 -9 -35 -14.5t-44 -7.5t-46 0.5t-42 8.5
q-94 31 -132 119q-5 10 -8 19.5t-7 20.5q-2 5 -2 9t-2 9q-2 7 -2.5 14.5t-2.5 14.5q-1 4 -0.5 7.5t-0.5 7.5q0 4 -0.5 8t-0.5 8q-2 12 0 25q1 6 1 12v11q1 5 1 8.5t1 8.5q3 11 4 21.5t5 21.5l7.5 23.5t8.5 22.5q7 16 16 29.5t19 26.5q7 11 18 18l4 4l4 4l10.5 8l11.5 8
q13 8 27.5 14t31.5 11q10 3 20.5 4t21.5 3q4 1 10.5 0t9.5 1q32 1 57.5 -6t45.5 -20q7 -4 13 -9l12 -10q5 -4 9.5 -8.5t14.5 -4.5l3.5 3.5t3.5 4.5q3 8 3.5 16t5.5 14q3 4 12 6.5t19 2.5t19.5 -2t13.5 -5zM427 257q1 4 1 10.5t-1 10.5v16q-2 9 -3 17.5t-3 16.5t-3.5 15.5
t-4.5 14.5q-11 28 -28.5 50t-44.5 33q-8 4 -17 6.5t-19 4.5q-8 2 -17.5 1.5t-18.5 -0.5q-5 -1 -9.5 -1t-9.5 -1q-19 -5 -32 -10q-34 -14 -53 -42t-30 -65q-2 -8 -2.5 -15.5t-2.5 -15.5q-2 -3 -1.5 -7t-0.5 -7v-22v-22.5t2 -21.5q0 -2 0.5 -5t0.5 -5q2 -9 3.5 -18t4.5 -17
q8 -26 20 -48t32 -36q4 -3 8 -5.5t9 -4.5q8 -5 17 -8t20 -6q5 -1 9.5 -0.5t9.5 -1.5q3 -1 10 -1t10 1t6.5 0.5t7.5 0.5q9 2 17 4t16 5q34 15 54 42t32 63q3 9 4.5 18.5t3.5 18.5q1 4 1 7.5t1 7.5q2 5 0.5 10.5t0.5 11.5z" />
    <glyph glyph-name="h" unicode="h" 
d="M92 712q14 0 29.5 -0.5t21.5 -8.5q5 -7 5 -20.5v-26.5v-106v-30q0 -4 -0.5 -8t0.5 -8q1 -3 0.5 -7t0.5 -7q2 -8 2.5 -15t10.5 -7q2 2 4.5 2.5t4.5 2.5q6 4 11 8.5l11 9.5q11 8 24.5 14.5t27.5 11.5q8 2 17 3.5t17 3.5q4 2 8 1.5t9 0.5q5 2 16.5 2t16.5 -2h9.5t9.5 -1
q8 -2 16 -3t16 -3q5 -2 8 -2.5t8 -2.5q11 -5 21 -10.5t20 -12.5q10 -9 19 -21q6 -9 11 -18t10 -20q3 -7 4.5 -14t3.5 -15q2 -5 2 -10t1 -11q2 -5 1.5 -10t1.5 -10v-10q1 -5 0.5 -11t-0.5 -11v-43v-208q0 -8 0.5 -19.5t0 -22t-2.5 -19.5t-6 -12q-7 -6 -26 -6h-25.5t-18.5 8
q-5 7 -5 16.5v20.5v72v160q0 27 0.5 57.5t-6.5 52.5q-12 34 -40 50q-8 5 -17 8.5t-20 5.5q-4 1 -12 1q-4 1 -9.5 2t-10.5 -1q-4 -1 -8 -0.5t-9 -0.5q-9 -2 -18.5 -3.5t-17.5 -5.5q-34 -14 -54 -38t-31 -61q-2 -7 -3 -15t-3 -16q-1 -3 -0.5 -6.5t-0.5 -6.5q-1 -5 0 -10t0 -10
v-201q0 -8 0.5 -18.5t0 -20.5t-1.5 -19t-4 -13q-4 -5 -9.5 -5.5t-12.5 -2.5h-14q-11 0 -21 0.5t-15 6.5q-5 8 -5.5 19.5t-0.5 24.5v92v417v98q0 11 -0.5 23.5t4.5 19.5q4 7 15 10q2 1 4 0.5t4 0.5z" />
    <glyph glyph-name="i" unicode="i" horiz-adv-x="222" 
d="M80 616q-8 6 -8.5 21.5t-0.5 30.5v17t3 15q4 8 16 12q2 1 4.5 0.5t4.5 0.5q17 0 32 -1t20 -12q3 -6 3 -14.5v-17.5q0 -18 -0.5 -34t-13.5 -21q-5 -2 -10.5 -2h-11.5h-21t-17 5zM154 49q0 -10 0.5 -20.5t-4.5 -16.5q-3 -6 -9 -7.5l-14 -3.5h-15q-13 0 -22.5 1.5t-14.5 9.5
q-4 6 -4 15.5v18.5v423v21.5t5 16.5q3 5 8 6t11 3q2 0 4.5 -0.5t4.5 0.5q13 0 26.5 -0.5t18.5 -8.5q5 -6 5 -15.5v-19.5v-423z" />
    <glyph glyph-name="j" unicode="j" horiz-adv-x="222" 
d="M78 618q-8 5 -8 20.5v28.5v17.5t3 15.5q2 5 6.5 8t10.5 5q2 0 4 -0.5t4 1.5q17 0 32.5 -1t20.5 -12q2 -7 2.5 -15.5t0.5 -17.5q0 -18 -1 -33.5t-14 -20.5q-5 -2 -10.5 -2.5t-10.5 -0.5q-12 0 -22.5 1t-17.5 6zM154 -43q0 -7 0.5 -15t-1.5 -14v-8q-1 -6 -1.5 -11.5
t-1.5 -11.5q-4 -17 -9.5 -30t-14.5 -24q-8 -12 -22 -20t-29 -13q-7 -2 -13 -2t-13 -2q-6 -2 -18 -2.5t-18 1.5t-11 3.5t-8 5.5q-2 4 -3.5 11t-2 14.5t0.5 15t3 11.5q4 8 11 9t17 3q2 0 4 0.5t4 0.5q12 2 20 7q14 8 19 30q1 4 1.5 8t1.5 9q1 6 0 13t0 12v505v23.5t5 20.5
q4 5 15 9q2 0 4.5 -0.5t4.5 1.5q15 0 29.5 -0.5t20.5 -9.5q5 -8 5 -23.5v-29.5v-497z" />
    <glyph glyph-name="k" unicode="k" horiz-adv-x="519" 
d="M97 713q14 0 29.5 -0.5t21.5 -8.5q4 -5 4.5 -13t0.5 -18v-53v-217v-38q0 -5 -0.5 -10.5t0.5 -10.5v-8q0 -10 3 -17q1 -3 3 -4.5t4 -3.5q9 -1 13.5 2.5l9.5 7.5t8 8t7 7q8 5 14 11.5l13 13.5q5 5 9.5 9t9.5 9q3 2 5.5 5t4.5 5t3 2.5t3 2.5q4 5 8 8.5l9 7.5q2 3 5 6l6 6
q9 7 16.5 15t16.5 15q3 3 6 6.5t6 6.5q13 10 23 22t24 21q8 5 20.5 6.5t27.5 1.5q5 0 10.5 0.5t9.5 -0.5h11q8 -2 13 -3.5t5 -10.5q-2 -2 -2.5 -5t-2.5 -5q-2 -3 -5.5 -6t-6.5 -5q-2 -2 -2.5 -3t-2.5 -3q-4 -2 -7 -5.5t-6 -5.5q-3 -3 -6 -5.5t-5 -5.5q-8 -6 -15 -13t-15 -13
l-5 -5t-5 -6q-10 -7 -18 -15.5t-18 -15.5q-2 -3 -5 -5.5t-5 -5.5q-5 -4 -9 -8t-9 -8t-9.5 -8.5t-7.5 -9.5q-2 -2 -5 -7t-1 -10q2 -11 7.5 -18t10.5 -15q8 -11 15 -22.5l14 -22.5l55 -81l54 -82q6 -8 11 -16t11 -16l8 -11.5t7 -12.5q4 -8 3 -14.5t-9 -8.5q-5 -2 -12 -2h-13
q-14 0 -28.5 -0.5t-23.5 3.5q-13 6 -23.5 23.5t-18.5 28.5l-45 68.5l-45 67.5l-17.5 27.5t-18.5 27.5q-3 4 -8.5 9t-13.5 3t-13.5 -7.5t-11.5 -10.5q-5 -4 -9.5 -9t-9.5 -9q-11 -8 -18.5 -17.5t-10.5 -24.5q0 -4 -0.5 -8t-0.5 -8q-1 -5 -0.5 -12t0.5 -13v-81v-28t-5 -22
q-5 -7 -17 -7.5t-25 -0.5h-11t-10 2q-12 4 -13.5 17t-1.5 30v116v400v94q0 11 -0.5 23t4.5 19q4 7 15 10q2 1 4 0.5t4 0.5z" />
    <glyph glyph-name="l" unicode="l" horiz-adv-x="222" 
d="M99 713h27.5t21.5 -7q5 -7 5.5 -18.5t0.5 -23.5v-89v-405v-112v-26t-5 -22q-3 -5 -8.5 -6t-13.5 -3h-14q-11 0 -21 0.5t-15 6.5q-5 8 -5.5 20t-0.5 25v92v416v98q0 11 -0.5 23.5t4.5 19.5q4 6 15 10q2 1 4.5 0.5t4.5 0.5z" />
    <glyph glyph-name="m" unicode="m" horiz-adv-x="853" 
d="M307 528q38 1 64.5 -8t48.5 -26q8 -5 13.5 -13.5t12.5 -15.5q2 -2 6 -5t10 -2q10 3 17.5 12.5t15.5 14.5q14 11 29 19.5t33 14.5q8 3 17.5 4.5t18.5 3.5q5 1 9.5 1h9.5q5 2 14 1.5t13 -1.5q5 -1 15 -1q9 -2 17.5 -3.5t16.5 -4.5q5 -2 9.5 -2.5t9.5 -2.5q50 -22 69 -68
q4 -8 6 -17.5t4 -20.5q2 -3 1.5 -6.5t0.5 -6.5v-9q1 -4 0.5 -9t-0.5 -10v-39v-64v-190q0 -16 0.5 -38t-8.5 -29q-4 -3 -13 -4.5t-19 -1.5t-19.5 1t-13.5 4q-6 3 -8 12q-2 6 -1 12.5t-1 12.5q-1 5 -0.5 11.5t0.5 12.5v45v191q0 33 -1.5 62.5t-14.5 49.5q-15 24 -46 35
q-6 2 -12.5 2.5t-13.5 2.5q-4 1 -13 0.5t-12 -1.5q-5 -1 -10 -0.5t-10 -1.5q-14 -3 -27 -8q-52 -22 -70 -77q-5 -17 -5.5 -39t-0.5 -45v-131v-97v-24.5t-5 -19.5q-5 -8 -17 -9t-25 -1q-17 0 -25 4q-9 5 -10.5 16.5t-1.5 25.5v95v165q0 32 -2 59.5t-14 47.5q-11 18 -25 26.5
t-38 13.5q-4 1 -8.5 1h-9.5q-22 0 -38.5 -5t-29.5 -13q-51 -31 -68 -93q-4 -13 -3.5 -29.5t0.5 -32.5v-113v-110v-27t-6 -22q-5 -7 -15 -8t-21 -1h-15q-6 2 -11.5 3t-9.5 6q-5 6 -5 15.5v20.5v65v286v74v19.5t4 15.5q3 6 9 8q8 3 25.5 3t25.5 -3q8 -4 11 -10q2 -5 2.5 -12
t1.5 -13t4 -10t10 -4q2 2 4.5 2t4.5 2l11.5 10l11.5 10q22 16 50 28q10 4 20 5.5t21 4.5q6 0 12.5 0.5t12.5 0.5z" />
    <glyph glyph-name="n" unicode="n" 
d="M307 526q63 2 101 -17t61 -57q6 -10 9.5 -21.5t6.5 -23.5q5 -19 6 -41t1 -45v-107v-156q0 -17 -0.5 -34t-13.5 -22q-5 -2 -10.5 -2.5t-11.5 -0.5q-13 0 -25 0.5t-17 8.5q-5 7 -5 18v22v86v163q0 27 -1 53.5t-9 45.5q-8 20 -24 32.5t-37 19.5q-6 2 -12.5 2.5t-12.5 2.5
q-5 1 -15.5 0.5t-14.5 -1.5q-4 -2 -7 -1.5t-7 -0.5q-13 -3 -24.5 -6.5t-21.5 -9.5q-4 -2 -7 -4t-7 -4q-35 -25 -51 -75q-3 -8 -4 -16.5t-3 -16.5q-2 -5 -1 -9.5t-1 -8.5v-21q-1 -3 -0.5 -7t0.5 -9v-30v-96v-88v-22.5t-5 -18.5q-5 -8 -17.5 -8.5t-25.5 -0.5q-8 0 -15 1t-12 5
q-8 5 -8 19v27v118v242v61v18t4 14q3 6 10 8q4 1 11.5 2t15.5 1t15.5 -1t10.5 -3q11 -7 10 -17.5t3 -23.5q2 -6 8 -10q12 -1 19.5 9t15.5 16q14 10 28.5 18.5t33.5 14.5q8 3 17.5 4t18.5 3q5 1 10 1h10z" />
    <glyph glyph-name="o" unicode="o" horiz-adv-x="574" 
d="M536 281q2 -6 2 -18.5t-1 -17.5v-10q-1 -8 -1.5 -14.5t-1.5 -14.5q-2 -6 -2.5 -12t-2.5 -12q-4 -13 -7 -26t-8 -24q-21 -48 -56 -80.5t-86 -49.5q-11 -4 -23.5 -6l-25.5 -4q-6 -1 -12.5 -1.5t-12.5 -0.5q-4 -1 -11.5 -1t-10.5 1q-4 1 -8 0.5t-7 0.5h-6l-24 3l-27 8t-25 9
q-45 20 -74 52t-48 78q-5 10 -7.5 20t-4.5 21q-2 4 -1.5 6.5t-0.5 6.5q-2 8 -2.5 16.5t-2.5 16.5v8.5t-1 8.5t-1 17.5t2 18.5q2 7 1 14t1 14q1 5 1.5 8.5t1.5 8.5q3 12 5.5 24t7.5 23q15 37 36.5 66.5t52.5 49.5q12 8 25 13.5l27 11.5q12 5 26 6.5t28 5.5q7 0 13.5 0.5
t12.5 1.5q89 1 148 -37t85 -99q5 -10 8 -20t7 -21q3 -11 5 -23.5t5 -25.5q1 -5 0.5 -10.5t0.5 -10.5zM447 224q2 7 1.5 16t-0.5 17q0 39 -7 66q-3 8 -5 16t-5 15q-28 65 -89 90q-7 3 -15 4.5t-16 3.5t-17 2h-18l-18 -3q-10 -2 -18.5 -4.5t-16.5 -6.5q-7 -2 -13 -6t-11 -8
q-24 -17 -39 -41t-26 -56q-3 -10 -4 -20.5t-3 -21.5q-1 -4 -1 -13q-1 -3 -0.5 -7t0.5 -9v-20t2 -18l2 -12q2 -10 3.5 -19.5t5.5 -17.5q10 -24 23.5 -45t33.5 -35q5 -3 9 -5t9 -5q8 -5 17.5 -8.5t20.5 -6.5q5 -2 9.5 -1.5t9.5 -0.5q3 -1 12.5 -2t14.5 1q4 1 8 0.5t8 1.5
q8 2 16 3.5t15 4.5q34 14 55 39t35 59q5 12 6.5 25.5t5.5 27.5z" />
    <glyph glyph-name="p" unicode="p" horiz-adv-x="593" 
d="M556 272q1 -5 1 -13t-1 -13q-2 -5 -1 -9.5t0 -8.5q0 -7 -1 -11q-2 -9 -2.5 -18t-2.5 -18l-4 -15.5t-5 -15.5q-12 -37 -33 -67q-6 -9 -13 -17.5t-15 -15.5l-5 -5q-7 -5 -13 -10t-14 -10q-11 -8 -24.5 -13.5t-27.5 -10.5q-8 -2 -15.5 -3t-15.5 -3q-2 0 -3.5 -0.5t-3.5 -0.5
q-9 -2 -26.5 -2.5t-27.5 1.5h-5q-7 1 -13 1.5t-12 2.5q-17 5 -32 9t-28 12q-16 9 -28 19q-4 3 -12 8.5t-15 0.5q-4 -3 -4 -8t-2 -11q-1 -3 0 -6.5t0 -7.5q-2 -6 -1.5 -13.5t0.5 -13.5v-120v-29t-6 -23q-5 -7 -16 -7.5t-22 -0.5h-16q-7 2 -11.5 4t-7.5 7q-5 7 -4.5 22t0.5 26
v600q0 12 0.5 24.5t5.5 20.5q3 4 13.5 6.5t22.5 2t22.5 -3t13.5 -6.5q4 -5 4.5 -12t3.5 -14q2 -3 3.5 -4.5l3.5 -3.5q11 -1 18.5 7t14.5 13q26 18 62 28q9 2 18.5 3t19.5 3q4 1 10 0t8 1q43 1 76 -8.5t59 -26.5q5 -4 10 -7.5t10 -7.5l3.5 -3.5l3.5 -3.5l11 -11t11 -12
l25 -37q8 -13 13.5 -29l10.5 -32q2 -8 3.5 -17t3.5 -17q0 -4 0.5 -7.5t0.5 -6.5q2 -5 1.5 -11t1.5 -11v-10zM467 245q2 5 1 12.5t-1 13.5q0 17 -1.5 32t-6.5 29q-2 6 -3.5 12.5t-4.5 12.5q-11 27 -34.5 52t-44.5 34q-8 4 -16.5 6t-17.5 5q-9 2 -20.5 2h-22.5
q-2 -2 -7.5 -1.5t-9.5 -0.5l-17.5 -4t-16.5 -6q-32 -14 -52.5 -40.5t-31.5 -61.5q-4 -11 -5.5 -22t-3.5 -22q-1 -4 -1 -7.5t-1 -7.5v-8q-1 -5 -1 -14.5t1 -14.5v-8q1 -4 1 -8t1 -7t1 -6t1 -7q2 -8 3.5 -16t3.5 -16q11 -34 30.5 -59.5t51.5 -39.5q19 -8 39 -12q4 -2 8 -1.5
t8 -0.5h8q7 -2 14 0h8q11 2 21 3t20 5q31 13 50.5 34.5t32.5 52.5q5 14 7.5 28.5t6.5 30.5q1 5 1 9t1 9v8z" />
    <glyph glyph-name="q" unicode="q" horiz-adv-x="593" 
d="M525 -146q0 -11 0.5 -22t-4.5 -17q-2 -3 -5 -5l-6 -4q-3 -1 -10 -1.5t-14.5 -0.5t-14.5 0.5t-10 1.5q-10 2 -14 9q-5 8 -5 24.5v28.5v123q0 11 0.5 24.5t-3.5 22.5l-3.5 3.5l-3.5 3.5q-10 0 -15.5 -5l-10.5 -10q-8 -6 -17 -11.5t-20 -10.5q-15 -6 -34.5 -10.5t-41 -6
t-43 0t-39.5 6.5q-5 2 -10 3t-10 3q-9 4 -18 7.5t-17 8.5q-35 22 -58.5 50.5t-40.5 70.5q-4 10 -6.5 21t-5.5 22q-1 2 -1 4.5t-1 5.5q-2 8 -2.5 18t-2.5 19v17q-2 5 -2 13t2 13v11t1 12q1 4 0.5 8t0.5 9q3 11 4.5 21.5t4.5 20.5q4 13 8 24.5t9 22.5q7 14 15.5 26.5
t17.5 24.5q1 0 3 2q5 8 15 16q1 1 1.5 2t2.5 2q4 3 7.5 6.5t8.5 6.5q14 11 31 18t36 13q10 4 21 5t22 3q4 1 11.5 0t9.5 1q33 0 64 -8t51 -20l12 -8t12 -9l10 -8t15 -4q2 2 4 3.5t3 4.5q3 7 3.5 15t5.5 13q3 4 12.5 6.5t20.5 3t21 -1.5t15 -5q7 -5 7.5 -17t0.5 -24v-616z
M444 245q1 5 1.5 14t-1.5 14v14q-2 10 -3.5 20t-3.5 18l-3.5 14.5t-4.5 13.5q-11 27 -35 53t-46 36q-8 4 -16.5 6t-17.5 5q-10 2 -21.5 2h-23.5q-5 -1 -9.5 -1.5t-9.5 -0.5l-16 -4t-15 -6q-32 -14 -51.5 -40t-30.5 -61q-4 -11 -5.5 -23.5t-4.5 -25.5v-9t-1 -9q-1 -4 -0.5 -9
t0.5 -10v-19.5t2 -17.5q1 -3 1 -9q2 -7 3.5 -14t3.5 -14q9 -29 24 -52.5t38 -39.5q3 -2 6.5 -4t6.5 -4q10 -6 21.5 -9.5t23.5 -6.5q5 -2 8 -1.5t8 -0.5q4 -1 10 -1.5t11 1.5h8q3 1 6 0.5t6 0.5q8 2 16 3.5t15 4.5q31 13 51 35.5t33 52.5q5 11 7 22t5 23q2 4 2 8t1 8
q1 5 0.5 11t0.5 12z" />
    <glyph glyph-name="r" unicode="r" horiz-adv-x="333" 
d="M304 528q23 0 26 -11.5t3 -33.5v-19t-5 -15q-6 -8 -17 -8.5t-22 -3.5q-14 -3 -26.5 -6t-23.5 -8q-29 -13 -47 -35.5t-31 -51.5q-4 -11 -6 -22.5t-5 -23.5q-1 -5 -0.5 -10t-0.5 -10q-3 -12 -2.5 -27.5t0.5 -29.5v-123v-23t-1 -23t-0.5 -19t-4.5 -14q-5 -7 -15.5 -8
t-22.5 -1h-18q-5 2 -9.5 3.5t-6.5 4.5q-5 7 -5.5 17.5t-0.5 21.5v77v277v69q0 11 0.5 20.5t5.5 16.5q3 4 10.5 6t16.5 2.5t18 -0.5t14 -3q8 -3 10.5 -11.5t2.5 -18v-20t4 -18.5q1 -2 2 -3l3 -3q11 0 18 9.5t12 15.5l6 6q9 11 25 23t30 18q9 5 19 7.5l21 5.5q6 1 12 1.5
t11 1.5z" />
    <glyph glyph-name="s" unicode="s" horiz-adv-x="500" 
d="M223 528q72 1 121 -16.5t76 -61.5q7 -11 11 -22.5t8 -25.5q2 -7 1 -14.5t-3 -11.5q-2 -2 -5 -3.5t-5 -3.5q-5 -2 -10 -1t-10 0q-8 -2 -21 -0.5t-18 4.5q-8 5 -10.5 13.5t-7.5 16.5q-9 16 -25 29q-11 8 -24 12t-28 8q-5 2 -10 1.5t-10 0.5q-6 2 -15 2t-15 -2h-6
q-5 -1 -10 -1.5t-10 -1.5q-26 -6 -43 -17t-23 -37q-2 -7 -0.5 -14t3.5 -12q6 -15 14.5 -21.5t21.5 -14.5q16 -10 36 -14.5t40 -10.5q13 -4 26 -6t26 -6l41 -11.5t40 -13.5l10 -4t10 -5q20 -12 35 -27t25 -38q2 -7 4 -19q2 -7 2.5 -14.5t0.5 -16.5v-10q-2 -7 -2 -14t-2 -14
q-3 -11 -7 -21t-9 -18q-16 -26 -41 -41.5t-56 -26.5q-9 -3 -18.5 -4.5t-18.5 -4.5q-10 -2 -20 -2t-20 -2h-10q-5 -1 -14 -1t-14 1h-11q-6 2 -13 1.5t-12 1.5q-5 1 -13 1q-8 2 -15.5 3.5t-15.5 4.5q-31 10 -54 25t-40 39q-9 13 -15 27t-11 31q-2 6 -1.5 14.5t2.5 13.5
q3 4 10 8q5 2 14 2.5t18 -0.5t17.5 -2.5t11.5 -3.5q7 -5 9.5 -14.5t6.5 -17.5q10 -22 27 -34q12 -9 27 -14t32 -10l21 -3h6q7 -2 18.5 -2t19.5 2q7 0 11 1q6 1 12 1.5t11 1.5q29 8 46 21t24 44q2 5 1 11t-2 9q-5 19 -14 28.5t-23 17.5q-9 6 -20 10l-22 8q-3 1 -5.5 1t-5.5 2
q-34 11 -70.5 16.5t-68.5 18.5q-10 4 -19 7t-17 8q-19 11 -35 25t-25 35q-3 7 -4.5 14t-3.5 15q-3 12 -2 27.5t3 26.5q2 5 2.5 8.5t2.5 7.5q9 23 24.5 40t35.5 30q15 9 33 14.5t38 10.5l13.5 2t14.5 2q3 1 8 0t7 1z" />
    <glyph glyph-name="t" unicode="t" horiz-adv-x="315" 
d="M124 672q15 0 30 -0.5t21 -8.5q5 -6 5.5 -16.5t0.5 -21.5v-58q0 -8 -0.5 -16.5t1.5 -14.5q4 -14 18 -18q5 -1 9.5 -1h9.5q11 0 27 0.5t23 -2.5q9 -6 12 -12q2 -4 2 -9v-10q0 -11 -1 -20.5t-7 -14.5t-16.5 -5.5t-22 0t-22.5 0.5t-19 -3q-7 -3 -10 -10t-4 -16.5t-0.5 -20
t0.5 -20.5v-198q0 -22 -0.5 -46.5t8.5 -37.5q5 -8 13 -11t19 -5q3 -1 6.5 -0.5t6.5 -0.5h13q10 0 18.5 -1.5t12.5 -7.5q2 -3 3.5 -10.5t2 -15.5t-0.5 -15.5t-4 -11.5q-4 -7 -15 -10q-8 -2 -18 -1.5t-18 0.5q-6 0 -12 -0.5t-11 0.5h-12q-5 1 -9.5 1.5t-9.5 0.5
q-20 5 -34.5 11t-24.5 21q-14 20 -16 50.5t-2 65.5v262q-3 13 -5.5 19t-14.5 10q-4 1 -8 0t-8 1h-16q-13 0 -21.5 2.5t-11.5 11.5q-2 4 -2.5 9t-0.5 10q0 14 2 23.5t12 14.5q11 4 28.5 2t29.5 2q9 5 14 14q2 6 2 15v17v62v16.5t2 14.5q4 8 15 13q3 0 5.5 0.5t4.5 0.5z" />
    <glyph glyph-name="u" unicode="u" 
d="M92 516h29t21 -8q5 -8 5.5 -20t0.5 -24v-95v-151v-45.5t5 -40.5q16 -45 60 -63q22 -9 53 -6.5t50 10.5q33 14 52.5 35.5t30.5 56.5q3 8 4 16t3 17q1 5 0.5 9t1.5 9v21q2 8 1 18.5t-1 19.5v78v106q0 12 -0.5 25.5t4.5 21.5q4 5 9.5 6.5t13.5 3.5h15q12 0 21.5 -1t14.5 -9
q5 -5 5 -14.5v-19.5v-68v-269v-90q0 -12 -0.5 -22.5t-7.5 -15.5q-4 -3 -12 -4.5t-17.5 -2t-18 0.5t-12.5 4q-5 4 -9 13q-1 4 -1.5 11t-1.5 13.5t-4 10.5t-9 3q-8 -2 -16 -11.5t-15 -14.5q-22 -16 -50 -28q-11 -5 -22.5 -6.5t-23.5 -4.5q-5 -1 -10.5 0t-10.5 -1q-10 -2 -18 0
h-10q-5 2 -11.5 2t-11.5 1q-4 2 -7.5 1.5t-8.5 1.5l-15.5 4t-15.5 6q-26 11 -43.5 29.5t-28.5 44.5q-4 9 -6 18.5l-4 19.5q-2 6 -1.5 11.5t-1.5 12.5q-1 2 -1 5.5t-1 6.5v10q-1 4 -0.5 9.5t0.5 10.5v40v184v64v18t4 15q4 7 15 10q2 1 4 0.5t4 0.5z" />
    <glyph glyph-name="v" unicode="v" horiz-adv-x="500" 
d="M46 516h32t26 -6q7 -5 9.5 -12.5t5.5 -15.5q6 -14 10 -28t9 -28q20 -54 37 -108.5t37 -108.5q7 -18 12 -36.5t13 -36.5q2 -7 5 -15t10 -10q8 -2 12.5 7t6.5 14q8 19 13.5 38.5t12.5 39.5l25 75.5l25 75.5l10 33.5t12 32.5q5 14 9 28t9 28q2 7 5 14t8 12q8 5 18 6t24 1
q7 0 13 -0.5t11 -2.5q9 -4 9.5 -13t-3.5 -18l-12 -35t-14 -35q-2 -5 -3 -9.5t-3 -9.5q-8 -17 -13 -35t-13 -36q-5 -13 -9.5 -26.5t-10.5 -26.5q-17 -41 -30.5 -83t-30.5 -83q-6 -16 -11 -32t-12 -32q-5 -11 -8.5 -20.5t-14.5 -14.5q-6 -3 -13.5 -3h-15.5q-16 0 -31 0.5
t-22 9.5q-7 8 -10 19.5t-8 22.5q-6 14 -11.5 29.5l-10.5 29.5q-2 5 -3 8.5t-3 8.5q-20 48 -36.5 97t-36.5 97l-11.5 31.5l-11.5 31.5q-2 5 -3.5 10.5t-3.5 10.5q-8 17 -13.5 34t-12.5 34q-2 6 -5 16t1 17q5 5 12 7q7 0 8 1z" />
    <glyph glyph-name="w" unicode="w" horiz-adv-x="758" 
d="M50 516h30.5t25.5 -6q8 -5 10.5 -14.5t5.5 -19.5q4 -12 7 -25t8 -25q2 -5 2 -9t2 -9q4 -12 6.5 -24.5t7.5 -25.5q11 -35 20 -72t20 -72q5 -14 8 -27.5t8 -27.5l4 -15.5t7 -13.5q1 -2 2 -2.5t3 -2.5q4 0 5 1q6 2 8 8.5l4 12.5q5 13 7.5 26t6.5 26q2 8 2 12q5 14 7 27.5
t7 27.5q4 14 6.5 28.5t7.5 28.5q8 28 14.5 57t14.5 57q3 13 5.5 25t6.5 24q2 5 3 9.5t3 8.5q4 6 15 10q6 2 12.5 2h13.5q13 0 25.5 -0.5t20.5 -5.5q6 -5 8.5 -11.5t4.5 -14.5q5 -15 8 -30.5t8 -31.5q2 -8 4.5 -16t4.5 -16q0 -3 2 -11q3 -9 5 -18.5t5 -19.5q1 -3 3 -11
q9 -29 15 -58t15 -58q5 -14 7.5 -29t7.5 -29q2 -7 3.5 -13.5t5.5 -12.5q1 -2 2.5 -2.5t3.5 -2.5q9 0 12 7t5 14q6 17 10 34t9 34q5 14 7.5 27.5t7.5 27.5q4 9 6 19t5 21q11 32 18.5 65.5t18.5 65.5l5.5 21l5.5 21l4 12t6 11q2 4 6.5 6t9.5 4q5 1 11 1h12q14 0 25 -2t14 -13
q1 -4 0 -7.5t-2 -5.5q-2 -7 -3.5 -13t-3.5 -12q-2 -4 -2.5 -7.5t-2.5 -7.5l-11.5 -37.5t-12.5 -36.5q-6 -17 -11 -35t-11 -36l-28 -88l-29 -89q-6 -17 -11 -34.5t-11 -34.5q-4 -11 -6.5 -22t-7.5 -20q-7 -11 -18.5 -12.5t-28.5 -1.5h-21l-10 2t-9 3q-6 4 -9.5 12t-5.5 18
l-4 19.5t-5 17.5q-4 12 -6 24.5t-6 24.5q-4 10 -5.5 20.5t-5.5 20.5q-2 7 -3.5 13.5t-3.5 13.5q-8 23 -12.5 47.5t-11.5 47.5q-6 18 -10 36t-9 35q-2 7 -5 14.5t-11 7.5h-1l-1 -1q-6 -2 -8.5 -10l-4.5 -14q-5 -16 -8 -31.5t-8 -31.5q-4 -13 -6.5 -26t-6.5 -26
q-3 -10 -5 -19.5t-5 -20.5q-9 -29 -15.5 -60t-15.5 -61q-4 -12 -6.5 -24.5t-6.5 -23.5q-2 -6 -3.5 -12t-6.5 -9q-5 -4 -10 -4.5t-12 -2.5h-20q-16 0 -28 1t-19 10q-5 8 -8 17.5l-6 19.5l-12 38l-12 38l-42.5 130l-41.5 130q-8 23 -14.5 45t-14.5 43q-2 6 -4.5 17t1.5 17
q3 4 13 8h4t4 1z" />
    <glyph glyph-name="x" unicode="x" horiz-adv-x="518" 
d="M62 516q15 0 35 0.5t30 -4.5q12 -5 19.5 -16l14.5 -22l26 -38.5l27 -38.5q5 -8 10.5 -15l10.5 -14q4 -6 8 -11t12 -7q5 -2 8.5 0.5t5.5 4.5q8 5 13.5 14l10.5 17l30 41l30 42l16 23t19 19q8 5 19.5 5h22.5h9.5t9.5 -1h5q12 -2 16 -8q2 -5 -0.5 -10.5t-4.5 -8.5l-14 -19.5
l-15 -19.5l-46.5 -62.5l-46.5 -62.5q-5 -8 -11 -15.5t-11 -16.5q-2 -3 -4 -7.5t0 -10.5q2 -9 6.5 -15l9.5 -13l12.5 -18l12.5 -18l46 -64l46 -64l16 -22.5l16 -22.5q5 -7 8.5 -12.5t1.5 -16.5q-2 -1 -3.5 -2.5t-3.5 -2.5q-5 -2 -13 -2h-16q-20 0 -34 0.5t-25 8.5
q-5 3 -7.5 7.5l-5.5 9.5l-10 14t-10 15l-63 93q-5 8 -10 15t-10 15q-5 7 -9.5 12.5t-12.5 7.5q-5 2 -9.5 -1.5t-6.5 -5.5q-8 -8 -14 -18t-12 -19l-34.5 -51.5l-35.5 -50.5l-10.5 -16l-10.5 -16l-4.5 -6.5t-5.5 -5.5q-10 -7 -23.5 -7.5t-30.5 -0.5h-15t-12 2q-3 2 -4.5 3.5
l-3.5 3.5q-1 11 3.5 17l9.5 13l15 20.5t14 20.5l43 60l42 60l13.5 18t12.5 19l10 13.5t7 17.5q2 5 -0.5 10t-4.5 8q-5 9 -11 17l-12 16l-46.5 64l-46.5 64q-8 11 -15.5 20t-14.5 20q-2 3 -4 8.5t0 9.5q2 5 6 6.5t9 2.5q2 1 3 0.5t2 0.5z" />
    <glyph glyph-name="y" unicode="y" horiz-adv-x="500" 
d="M42 516q13 0 30 0.5t25 -4.5t11.5 -13l7.5 -17q5 -13 9 -26t9 -26q5 -12 9 -24.5t9 -24.5q5 -11 8 -23t8 -24q12 -29 22 -60t22 -60q2 -4 2 -7.5t2 -6.5q6 -14 11 -28.5l10 -28.5l6 -14.5t10 -9.5q8 -3 12.5 5.5t6.5 13.5q8 17 13 36t12 37q9 23 16 46.5t17 45.5
q1 5 3 13q4 9 7 18.5t6 17.5q2 5 3 9t3 9q5 12 8.5 24.5t8.5 24.5q2 5 3 9t3 9q4 9 7 18.5l6 18.5q3 8 5.5 16.5t7.5 14.5q7 9 19.5 10t27.5 1q8 0 15.5 -0.5t12.5 -3.5q9 -6 5 -19t-7 -20q-1 -2 -1.5 -4t-1.5 -4l-22 -56.5l-22 -56.5q-3 -8 -5 -14.5t-5 -13.5l-15.5 -40.5
l-15.5 -40.5q-29 -69 -54 -139t-54 -139q-2 -5 -3.5 -10.5t-3.5 -11.5q-16 -37 -34 -73.5t-50 -56.5q-11 -6 -22 -9.5t-25 -6.5q-5 -2 -10.5 -1t-11.5 0q-8 -2 -16 0q-4 1 -10 1l-15.5 4t-11.5 8q-5 6 -5.5 14.5t-0.5 18.5q0 7 0.5 13.5t3.5 10.5q7 11 24 6q11 -2 24 -2
t23 4q15 5 24.5 15t16.5 22.5t12.5 26.5l11.5 28q4 9 8.5 22t0.5 27q-5 16 -10.5 30l-11.5 28q-9 21 -17 42l-16 41q-6 14 -11 27l-10 27l-35.5 88l-35.5 88q-10 23 -18 44.5t-17 43.5q-2 6 -6 16.5t1 17.5q3 5 12 7q2 1 4.5 0.5t4.5 0.5z" />
    <glyph glyph-name="z" unicode="z" horiz-adv-x="480" 
d="M71 516h280h53q8 0 16 -0.5t13 -3.5q8 -5 11 -18q2 -7 0.5 -17.5t-3.5 -15.5q-3 -8 -7 -13.5t-9 -11.5q-8 -10 -15.5 -18.5t-14.5 -18.5q-8 -11 -17 -21t-17 -21l-4.5 -4.5t-4.5 -5.5q-24 -32 -50 -61t-50 -61q-2 -2 -3.5 -4t-3.5 -4q-7 -9 -14.5 -17.5t-14.5 -18.5
q-3 -4 -6.5 -7.5t-6.5 -7.5q-11 -14 -21.5 -26t-20.5 -26q-3 -4 -10 -12.5t-5 -16.5q2 -5 6.5 -7t9.5 -3h5q4 -1 8.5 -1h9.5h37h162h16.5h19t17.5 -1.5t12 -4.5q7 -5 9 -23t-2 -29q-4 -9 -11 -12q-5 -3 -12.5 -3h-15.5h-44h-249h-62q-10 0 -18.5 1t-13.5 6q-4 5 -4 8.5
t-2 11.5v17q2 5 1.5 9.5t1.5 9.5q5 12 14 21.5t17 20.5l4.5 4.5t4.5 5.5l13.5 17l13.5 17l5 5l14 16.5l14 16.5q20 28 43 53.5t44 52.5q2 3 4.5 5.5t4.5 5.5l15 18.5l15 18.5l10.5 12l10.5 12q8 11 16 20.5l16 19.5q2 3 8.5 12t2.5 14q-2 7 -7.5 7.5t-12.5 2.5q-4 1 -9 0
t-10 0q-6 2 -14 1.5t-15 -0.5h-131h-36h-12t-11 2q-8 3 -11 10t-4 18v10v9l2 8t3 7t6 4.5t8 3.5h4t4 1z" />
    <glyph glyph-name="braceleft" unicode="{" horiz-adv-x="333" 
d="M258 730q23 0 36 -4t13 -29q0 -7 -1 -11q-3 -8 -8.5 -10.5t-12.5 -3.5t-15.5 -1t-16.5 -2q-16 -4 -24.5 -14t-13.5 -24q-5 -16 -5 -36.5v-40.5v-118q0 -23 -1 -45t-7 -39q-12 -38 -38 -61l-13.5 -10.5t-7.5 -14.5q2 -11 14 -18t18 -15q3 -5 6.5 -9t6.5 -9q7 -11 11 -22.5
t7 -25.5q4 -15 4 -34.5v-36.5v-120q0 -23 0.5 -44.5t8.5 -38.5q9 -23 34 -30q7 -2 14.5 -2t14.5 -0.5t12.5 -2.5t9.5 -8q5 -8 3.5 -22t-7.5 -19q-4 -2 -8.5 -3t-9.5 -3h-24q-42 0 -66 14q-23 14 -36 33t-21 48q-4 14 -4 32.5v36.5v116v23v11t-1 11q0 4 -0.5 7t-0.5 6
q-6 30 -17 50q-2 3 -4.5 5.5t-4.5 5.5t-8 9l-8 6t-9 6q-6 4 -12.5 6.5t-10.5 8.5q-3 4 -4 9t-3 11v7.5t1 6.5q2 6 2 10t2 9q5 8 16.5 13t19.5 11q12 9 21 23.5t14 31.5q7 20 7 45v51v103v30.5t3 27.5q7 34 23 58q23 30 64 42q5 2 11 2h12q3 0 7.5 -0.5t6.5 1.5z" />
    <glyph glyph-name="bar" unicode="|" horiz-adv-x="222" 
d="M145 786v-999h-68v999h68z" />
    <glyph glyph-name="braceright" unicode="}" horiz-adv-x="333" 
d="M64 731q12 0 25.5 -0.5t22.5 -2.5q38 -11 57.5 -36t29.5 -64q3 -11 3 -24v-26v-84v-43q0 -5 -0.5 -11t0.5 -11v-10v-12.5t1 -11.5q2 -8 4 -20q5 -14 9.5 -24t12.5 -20l5.5 -7.5t5.5 -5.5q4 -2 7.5 -5t8.5 -5q7 -5 13.5 -7.5t10.5 -9.5q2 -4 2.5 -8.5t2.5 -9.5v-7.5
t-1 -6.5q-2 -6 -2 -10t-2 -8q-5 -8 -16.5 -13.5t-19.5 -10.5q-13 -11 -22 -26t-14 -33q-3 -8 -3.5 -17.5t-2.5 -18.5v-19q-1 -4 -0.5 -8.5t0.5 -8.5v-34v-91q0 -20 -1 -39t-6 -34q-18 -57 -71 -78q-7 -3 -15 -3.5t-16 -2.5h-23q-21 0 -32.5 4t-11.5 25v10q3 14 15 17
q8 4 20 3t21 2q12 3 20 10.5t13 18.5q7 16 7.5 37t0.5 44v121v38t4 34q6 22 15 38.5t23 30.5q5 5 10.5 9.5t10.5 10.5q1 2 2.5 4t1.5 5q-2 11 -14 18.5t-18 15.5q-7 9 -13 19t-11 21q-3 7 -4.5 14t-3.5 15q0 6 -1 10q-2 11 -2 25v27v125q0 23 -0.5 45t-8.5 39q-8 22 -34 30
q-8 2 -16.5 2t-15.5 1t-12.5 3.5t-8.5 10.5q-1 4 -1 14q0 23 16 28q3 1 11.5 0.5t10.5 1.5z" />
    <glyph glyph-name="asciitilde" unicode="~" horiz-adv-x="600" 
d="M188 314q23 1 41.5 -4t34.5 -12q5 -2 9.5 -3.5t9.5 -3.5q10 -4 19 -8t19 -8l34 -16.5t37 -13.5q7 -2 16 -1.5t14 2.5q7 2 8 3q12 5 21.5 13.5t16.5 18.5q5 5 9.5 11.5t10.5 9.5q8 5 15 -1q6 -3 13.5 -15t5.5 -23q-2 -8 -7 -14l-10 -12q-23 -32 -65 -47q-5 -2 -10 -3
l-10 -2q-3 0 -6 -0.5t-6 -0.5q-1 0 -3.5 -0.5t-4.5 0.5q-4 1 -8 0.5t-8 0.5l-19.5 4t-18.5 6q-12 5 -24.5 11t-23.5 13q-14 9 -31 17q-12 5 -24.5 9t-26.5 8q-5 1 -8.5 0.5t-8.5 0.5q-6 2 -13 1t-12 -3q-29 -9 -45 -30q-5 -6 -9.5 -13t-10.5 -11t-13 -1q-4 2 -7 5
q-1 1 -1.5 2t-2.5 3l-4.5 6.5t-4.5 8.5q-3 8 0 16.5t6 13.5q24 38 65 54q7 3 14 4t14 3q3 1 7 0t6 1z" />
    <glyph glyph-name="Adieresis" unicode="&#xc4;" horiz-adv-x="648" 
d="M273 838q1 -5 1 -11v-11q0 -16 -2 -28t-13 -17q-5 -2 -11 -2h-12q-13 0 -24 0.5t-18 5.5q-8 6 -8 21.5v29.5v17t3 15q4 9 16 12q2 1 4.5 0.5t4.5 0.5q17 0 34.5 -0.5t22.5 -13.5q1 -2 1 -5t1 -5v-9zM461 829v-34.5t-13 -23.5q-5 -2 -11.5 -2h-14.5q-14 0 -26 0.5t-18 8.5
q-5 6 -5 17.5v22.5q0 5 -0.5 9.5t0.5 7.5v10q1 3 1 6.5t2 5.5q3 8 14 12q3 1 5.5 1t4.5 1h34t23 -11q4 -5 4 -14v-17zM635 53l5 -12t4.5 -14.5t0 -14t-8.5 -9.5q-5 -2 -12 -2h-14h-29.5t-24.5 5q-10 6 -14.5 21t-9.5 27q-11 26 -20 54t-20 55l-5.5 17t-6 15t-9.5 12t-16 8
q-5 2 -11.5 1.5t-13.5 -0.5h-189q-9 0 -20 0.5t-21 -0.5t-18.5 -3t-12.5 -8q-8 -10 -11.5 -22.5t-8.5 -25.5q-10 -23 -18.5 -48t-18.5 -48l-4.5 -13.5t-5.5 -15.5t-6.5 -14.5t-7.5 -9.5q-8 -6 -21.5 -6.5t-28.5 -0.5q-8 0 -15.5 0.5t-12.5 4.5q-5 3 -5.5 9t1 12.5t4 13
t4.5 9.5q14 32 25 63.5t24 63.5q9 22 17 43.5t17 43.5q30 72 57 145.5t57 146.5q11 26 20.5 53t20.5 53q5 11 9.5 24.5t13.5 19.5q4 4 13 6q2 1 4.5 0.5t4.5 0.5q18 0 42 0.5t35 -7.5q8 -6 12.5 -19.5t9.5 -24.5q10 -23 18 -46t18 -46q8 -20 15.5 -41t16.5 -41
q30 -73 57.5 -147.5t58.5 -147.5q4 -9 6.5 -17l5.5 -17l21.5 -53zM421 296q9 3 11.5 10t1 15.5t-5 17t-6.5 14.5q-2 4 -2 7t-2 7q-3 8 -5.5 16.5t-6.5 17.5q-15 36 -26.5 73.5t-26.5 73.5q-5 11 -8.5 22t-8.5 21q-2 5 -4.5 9.5t-10.5 4.5q-2 -2 -4 -3t-4 -3q-4 -5 -6 -10.5
l-4 -11.5q-5 -11 -8 -22t-8 -22q-17 -39 -29.5 -79t-28.5 -78q-2 -5 -3.5 -10t-3.5 -10l-6 -16t-5 -16q-2 -5 -1.5 -11t2.5 -10q5 -8 21 -8.5t30 -0.5h107q11 0 27 -0.5t24 2.5z" />
    <glyph glyph-name="Aring" unicode="&#xc5;" horiz-adv-x="648" 
d="M635 53l5 -12t4.5 -14.5t0 -14t-8.5 -9.5q-5 -2 -12 -2h-14h-29.5t-24.5 5q-10 6 -14.5 21t-9.5 27q-11 26 -20 54t-20 55l-5.5 17t-6 15t-9.5 12t-16 8q-5 2 -11.5 1.5t-13.5 -0.5h-189q-9 0 -20 0.5t-21 -0.5t-18.5 -3t-12.5 -8q-8 -10 -11.5 -22.5t-8.5 -25.5
q-10 -23 -18.5 -48t-18.5 -48l-4.5 -13.5t-5.5 -15.5t-6.5 -14.5t-7.5 -9.5q-8 -6 -21.5 -6.5t-28.5 -0.5q-8 0 -15.5 0.5t-12.5 4.5q-5 3 -5.5 9t1 12.5t4 13t4.5 9.5q14 32 25 63.5t24 63.5q9 22 17 43.5t17 43.5q30 72 57 145.5t57 146.5q11 26 20.5 53t20.5 53
q5 11 9.5 24.5t13.5 19.5q4 4 13 6q2 1 4.5 0.5t4.5 0.5q18 0 42 0.5t35 -7.5q8 -6 12.5 -19.5t9.5 -24.5q10 -23 18 -46t18 -46q8 -20 15.5 -41t16.5 -41q30 -73 57.5 -147.5t58.5 -147.5q4 -9 6.5 -17l5.5 -17l21.5 -53zM421 296q9 3 11.5 10t1 15.5t-5 17t-6.5 14.5
q-2 4 -2 7t-2 7q-3 8 -5.5 16.5t-6.5 17.5q-15 36 -26.5 73.5t-26.5 73.5q-5 11 -8.5 22t-8.5 21q-2 5 -4.5 9.5t-10.5 4.5q-2 -2 -4 -3t-4 -3q-4 -5 -6 -10.5l-4 -11.5q-5 -11 -8 -22t-8 -22q-17 -39 -29.5 -79t-28.5 -78q-2 -5 -3.5 -10t-3.5 -10l-6 -16t-5 -16
q-2 -5 -1.5 -11t2.5 -10q5 -8 21 -8.5t30 -0.5h107q11 0 27 -0.5t24 2.5zM428 880q8 -18 7.5 -42t-8.5 -41q-19 -43 -66 -62q-5 -2 -11 -3t-12 -3q-2 -1 -5 -0.5t-6 -0.5t-7 -0.5t-7 1.5q-2 0 -4.5 0.5t-5.5 0.5l-13.5 4t-12.5 5q-21 11 -36 27.5t-23 41.5q-2 8 -4 21.5
t0 24.5q2 5 2.5 10.5t2.5 10.5q10 23 25.5 40.5t38.5 27.5q5 2 11 3.5t12 3.5q4 0 7.5 0.5t7.5 0.5q41 1 68 -21t39 -50zM390 826q2 10 0.5 21t-4.5 18q-8 20 -24 31t-45 11q-2 -1 -3.5 -0.5t-3.5 -0.5q-3 -1 -6.5 -1.5t-6.5 -2.5q-25 -10 -36 -37q-2 -3 -2.5 -7t-1.5 -7
q-2 -8 -1 -16t3 -13q10 -32 40 -45q5 -2 14.5 -4.5t17.5 -0.5q5 2 9 2t8 2q12 5 22 13.5t15 20.5q2 4 3 7.5t2 8.5z" />
    <glyph glyph-name="Ccedilla" unicode="&#xc7;" horiz-adv-x="722" 
d="M372 731q91 2 158 -32t103 -88q11 -16 18.5 -34t14.5 -38q3 -10 3 -20.5t-8 -15.5q-5 -2 -12.5 -2.5t-15.5 -0.5h-25t-21 5q-6 4 -8.5 10l-5.5 13q-4 8 -7.5 16.5t-8.5 16.5q-17 27 -40 45.5t-55 31.5q-8 4 -16.5 5.5t-17.5 3.5q-10 2 -21.5 3t-23.5 1h-18q-8 -2 -17 -2
t-17 -2q-14 -3 -27 -6.5t-25 -8.5q-48 -22 -78 -61.5t-47 -92.5q-4 -11 -6 -21.5l-4 -21.5q-2 -4 -1.5 -7.5t-0.5 -8.5q-3 -11 -3.5 -24.5t-0.5 -27.5q0 -7 -0.5 -14t0.5 -12v-9q2 -6 1.5 -12.5t1.5 -11.5q2 -8 2 -15.5t2 -15.5t3.5 -16t3.5 -16l11.5 -35.5t15.5 -32.5
q18 -31 42 -55.5t58 -39.5q11 -5 22.5 -7.5t24.5 -6.5q12 -3 26 -4t29 -1q6 0 13 -0.5t13 1.5q11 2 21 3.5t19 4.5q20 6 36 15t30 20q8 7 15 15l5 5q3 5 6.5 8.5t7.5 8.5q9 13 15.5 27.5t12.5 30.5q3 7 4.5 14t3.5 15q2 7 2.5 13.5t4.5 12.5q4 7 10 8q5 2 8.5 1.5t8.5 1.5
q4 1 8.5 0.5t9.5 -0.5q13 0 24 -1t16 -9q4 -7 2.5 -17t-3.5 -16q-2 -7 -2.5 -12.5t-2.5 -12.5q-5 -12 -9 -24t-9 -23q-24 -56 -65 -93.5t-101 -57.5q-10 -4 -20 -6l-21 -4q-5 -2 -9.5 -2t-9.5 -1q-4 -1 -12 -1q-11 -3 -19 -4t-16 -7q-4 -3 -5.5 -9.5t3.5 -10.5q7 -5 18 -5.5
t19 -3.5q19 -5 32 -15.5t20 -27.5q5 -12 4.5 -27.5t-5.5 -26.5q-16 -37 -60 -51q-5 -2 -9.5 -2t-9.5 -2q-15 -4 -37 -4h-10q-5 1 -9 0.5t-9 0.5q-13 4 -26 6t-22 9q-8 6 -7 17.5t9 16.5q4 3 11 4t14 -1q10 -3 22 -4t24 0t22.5 4.5t16.5 9.5q5 5 8 13t-2 16q-6 11 -15 13.5
t-23 5.5q-5 2 -10 -1h-6q-10 -2 -19 0t-13 7q-5 7 -4.5 14t4.5 14t8.5 12.5t7.5 10.5l4.5 11t-1.5 11q-4 6 -11 7.5t-15 3.5q-12 3 -23.5 5.5t-22.5 6.5q-18 7 -35 15t-32 19q-9 6 -17.5 13l-16.5 14q-4 2 -7 6t-5 7l-9 9l-11.5 15t-10.5 15q-25 39 -41 84q-3 10 -5.5 19.5
t-4.5 19.5q-3 11 -4 22.5t-4 22.5q0 4 -0.5 7t-0.5 6q-2 6 -1 13t-1 13v12q-2 5 -2 17.5t2 17.5v11q1 5 1 10v10q3 12 3.5 24t3.5 24l11.5 42.5t13.5 40.5q11 24 24 44.5t27 40.5l4.5 4.5t4.5 5.5q4 4 7.5 8t7.5 7q3 2 5.5 5t4.5 5q7 5 12.5 9.5t12.5 9.5q21 15 45 25.5
t51 19.5q14 5 29.5 6t30.5 5q7 1 13.5 1t14.5 1z" />
    <glyph glyph-name="Eacute" unicode="&#xc9;" horiz-adv-x="611" 
d="M352 906q7 0 17.5 0.5t20 0t17.5 -2.5t11 -6q1 -4 -1 -11q-2 -6 -8 -12l-11 -11t-9.5 -10.5l-9.5 -11.5q-3 -5 -7.5 -8.5t-8.5 -8.5q-2 -2 -2.5 -3t-2.5 -2q-4 -5 -8 -8.5t-8 -8.5q-2 -4 -5.5 -7t-6.5 -6q-4 -5 -8.5 -10t-9.5 -8q-7 -4 -22.5 -6.5t-24.5 2.5
q-3 2 -5.5 6.5t-0.5 10.5q2 8 6 14.5t9 12.5l17 29l18 29l8 14.5t11 12.5t14 8q3 0 5.5 0.5t4.5 0.5zM105 713h327h86q11 0 22 0.5t18 -4.5q3 -2 5 -5l4 -6q2 -7 2 -22.5t-2 -23.5q-4 -14 -17 -15.5t-31 -1.5h-100h-168q-16 0 -37.5 0.5t-31.5 -5.5t-10.5 -21t-0.5 -31v-102
q0 -11 -0.5 -26t1.5 -24q3 -12 12 -16q4 -2 14 -4h10q4 -1 8.5 -0.5t9.5 0.5h34h196q9 0 20 0.5t22.5 0t21 -2t14.5 -4.5q3 -2 5 -9t3 -15t0.5 -16.5t-2.5 -14.5q-2 -9 -9 -13q-2 -2 -5.5 -2.5t-6.5 -1.5h-6q-5 -1 -10 -0.5t-10 0.5h-37h-211q-12 0 -23.5 0.5t-21.5 -1
t-17.5 -5.5t-10.5 -14q-2 -6 -1.5 -14t0.5 -16v-56v-95q0 -14 1 -25.5t8 -16.5t16 -5.5t20 -0.5h64h185h57q8 0 16 0.5t14 -1.5q12 -4 16 -11q2 -3 3 -10t1.5 -14.5t-0.5 -15t-2 -11.5q-4 -8 -9 -11q-6 -4 -15.5 -4h-18.5h-70h-266h-70q-14 0 -24 1.5t-15 9.5q-4 6 -4 15.5
v18.5v70v268v224v62v18t4 14q4 7 15 10q2 1 4 0.5t4 0.5z" />
    <glyph glyph-name="Ntilde" unicode="&#xd1;" horiz-adv-x="722" 
d="M503 886q16 0 21.5 -9.5t0.5 -24.5q-7 -18 -16.5 -34t-24.5 -25q-14 -9 -37 -14t-45 2q-20 5 -38.5 13t-38.5 15q-6 2 -12.5 2.5t-12.5 2.5q-5 1 -10.5 0.5t-8.5 -1.5q-8 -3 -15.5 -6.5t-12.5 -9.5l-8 -10t-9 -8q-8 -5 -19 -4t-15 9q-2 5 -1 10t2 8q8 20 16 34
q6 10 13 18t17 14q12 7 29 12q8 2 19.5 1.5t19.5 -2.5q6 -2 11 -2t10 -2q25 -9 47 -19q10 -5 24 -9q3 -1 6 -1t7 -1q3 -1 7.5 -1.5t7.5 0.5q9 2 16.5 5t12.5 9q4 5 8 11t9 9q4 4 11 6q2 1 4.5 1t4.5 1zM106 713q18 0 40 0.5t33 -7.5q8 -6 15 -17.5l13 -20.5l26.5 -40.5
l26.5 -41.5q7 -11 14.5 -21.5t14.5 -21.5l61 -95.5l62 -95.5q8 -14 17.5 -26.5t17.5 -26.5l34.5 -53.5l34.5 -52.5l12.5 -19.5t18.5 -11.5q5 2 5 3q5 6 5 17v21v79v306v60q0 7 -1 15t1 15v11q2 4 2.5 8t2.5 7q6 8 18 8.5t26 0.5h12.5t11.5 -2q12 -5 13.5 -17.5t1.5 -29.5
v-110v-419v-84q0 -11 0.5 -22t-4.5 -17q-4 -6 -9.5 -7.5t-13.5 -3.5h-26h-24.5t-20.5 4q-8 3 -12.5 10t-9.5 14l-16.5 25l-16.5 26l-71 107l-70 108l-38.5 59l-38.5 59l-69 105l-8 13.5t-11 11.5q-2 1 -4 3t-5 1q-6 -2 -7 -8t-3 -12v-7q-2 -7 -1 -15.5t1 -16.5v-66v-318v-47
q0 -5 0.5 -12t-1.5 -12v-8q-2 -10 -4 -14q-2 -5 -7 -6.5t-11 -3.5h-20q-14 0 -25 1t-16 9q-5 6 -5 16.5v21.5v81v418v108v25.5t5 21.5q3 5 12 9q2 1 5.5 0.5t5.5 0.5z" />
    <glyph glyph-name="Odieresis" unicode="&#xd6;" horiz-adv-x="760" 
d="M329 840q1 -5 1 -11v-11q0 -16 -2 -28t-13 -17q-5 -2 -11 -2h-12q-13 0 -24 0.5t-18 5.5q-8 6 -8 21.5v29.5v17t3 15q4 9 16 12q2 1 4.5 0.5t4.5 0.5q17 0 34.5 -0.5t22.5 -13.5q1 -2 1 -5t1 -5v-9zM517 831v-34.5t-13 -23.5q-5 -2 -11.5 -2h-14.5q-14 0 -26 0.5t-18 8.5
q-5 6 -5 17.5v22.5q0 5 -0.5 9.5t0.5 7.5v10q1 3 1 6.5t2 5.5q3 8 14 12q3 1 5.5 1t4.5 1h34t23 -11q4 -5 4 -14v-17zM720 371q1 -5 1 -14.5t-1 -14.5v-12q-2 -10 -2 -20.5t-2 -19.5q-2 -8 -3 -15t-2 -15q-5 -17 -9 -33t-10 -31q-30 -73 -78.5 -122t-126.5 -75
q-11 -3 -22 -5t-22 -5q-5 -1 -9 -1t-8 -1l-33 -3q-3 -1 -13.5 -0.5t-13.5 1.5q-5 1 -9.5 0.5t-8.5 0.5h-11q-7 2 -13.5 2.5t-13.5 1.5q-10 3 -19.5 4.5t-19.5 4.5l-20 8l-20 8q-61 27 -100.5 74.5t-65.5 110.5q-6 14 -9 29t-8 31q-2 4 -1.5 7t-1.5 8q-2 7 -2 15t-2 16
q-2 4 -1.5 8t-0.5 7v21q-2 5 -2 14t2 14v13l3 36q2 6 2 12t2 12q4 16 7 31.5t9 29.5l15 37t18 34q28 45 66 78t90 54q11 5 23.5 8t25.5 7q6 2 12.5 2t12.5 2q8 1 15.5 1.5t15.5 1.5q2 1 5 0t5 0q67 2 117 -13.5t88 -42.5q15 -10 29 -21t25 -25q3 -5 7 -8t7 -8l12 -16.5
t11 -16.5q2 -5 4 -8.5l5 -8.5q4 -6 7 -12q8 -18 16 -38q2 -6 3.5 -11.5t3.5 -11.5q3 -10 5.5 -20.5t5.5 -21.5q2 -5 2 -10t1 -10q2 -7 2 -14t2 -15v-6q1 -5 0 -10t1 -10zM626 339q2 5 2 17.5t-2 17.5v8q0 5 -0.5 9t-0.5 9q-2 5 -1.5 9.5t-1.5 9.5q-2 9 -3.5 18t-3.5 17
q-5 14 -8.5 26.5t-8.5 24.5q-17 41 -46.5 74t-69.5 51q-22 10 -52 16q-14 4 -31.5 4.5t-34.5 0.5q-7 -1 -13.5 -1.5t-14.5 -1.5l-28.5 -7.5t-26.5 -8.5q-54 -23 -85 -66t-50 -101q-4 -11 -5.5 -22.5t-4.5 -23.5q-1 -5 -1 -9.5t-1 -9.5q-2 -4 -1.5 -8.5t-0.5 -8.5v-9
q-1 -5 -1 -18t1 -18q0 -4 0.5 -7.5t0.5 -7.5q2 -8 2.5 -17.5t2.5 -17.5q1 -4 0.5 -7.5t1.5 -7.5q3 -11 5 -22t7 -22t8.5 -21.5t9.5 -20.5l9.5 -15.5l9.5 -15.5q31 -44 81 -69q14 -8 28.5 -12l31.5 -9q7 -2 13 -1.5t13 -1.5q6 -2 13.5 -1.5t15.5 0.5h10q5 1 10 1.5t10 0.5
q14 3 26.5 5t23.5 7q51 21 83.5 55t53.5 85q5 13 8.5 27t7.5 28q2 6 2.5 12.5t2.5 13.5l3 33v9z" />
    <glyph glyph-name="Udieresis" unicode="&#xdc;" horiz-adv-x="722" 
d="M310 839q1 -5 1 -11v-11q0 -16 -2 -28t-13 -17q-5 -2 -11 -2h-12q-13 0 -24 0.5t-18 5.5q-8 6 -8 21.5v29.5v17t3 15q4 9 16 12q2 1 4.5 0.5t4.5 0.5q17 0 34.5 -0.5t22.5 -13.5q1 -2 1 -5t1 -5v-9zM498 830v-34.5t-13 -23.5q-5 -2 -11.5 -2h-14.5q-14 0 -26 0.5t-18 8.5
q-5 6 -5 17.5v22.5q0 5 -0.5 9.5t0.5 7.5v10q1 3 1 6.5t2 5.5q3 8 14 12q3 1 5.5 1t4.5 1h34t23 -11q4 -5 4 -14v-17zM102 713q14 0 33.5 0.5t25.5 -7.5q8 -9 7.5 -27t-0.5 -34v-150v-186q0 -35 1 -68.5t10 -59.5q13 -39 37 -64t61 -41q11 -5 23 -6.5t24 -4.5
q6 -1 12.5 -1.5t12.5 -1.5h10q6 0 12.5 -0.5t11.5 1.5q5 1 10.5 0.5t10.5 0.5q12 3 23 5t22 7q38 15 59.5 39t34.5 64q8 25 9.5 56.5t1.5 64.5v164v173q0 17 -0.5 38.5t7.5 30.5q5 7 18.5 7h26.5q5 0 9.5 -0.5t9.5 -0.5q14 -3 18 -10q5 -8 4.5 -23t-0.5 -27v-138v-208
q0 -37 -1 -73t-9 -65q-14 -49 -36.5 -83.5t-60.5 -58.5q-15 -9 -32 -16t-36 -13q-9 -3 -18 -4.5t-19 -3.5t-20.5 -2t-20.5 -2h-12q-5 -1 -16 -1t-16 1h-12q-7 2 -14.5 1.5t-14.5 1.5h-8q-8 2 -15.5 3t-15.5 3l-33.5 9.5t-31.5 11.5q-7 3 -13.5 7t-13.5 9q-30 19 -50 45
t-34 61q-6 15 -9 31t-7 33q-1 8 -1.5 15.5t-1.5 15.5v10q-2 8 -1 16.5t1 16.5v65v261v68v18t4 15q4 7 15 10q6 0 8 1z" />
    <glyph glyph-name="aacute" unicode="&#xe1;" horiz-adv-x="537" 
d="M520 38q-1 5 -1 8t-2 6q-4 8 -12 9.5t-17 5.5q-8 3 -13 10q-5 8 -6 21t-1 27v221q0 29 -1.5 55.5t-10.5 46.5q-21 48 -73 65t-122 16q-2 -2 -11 -1.5t-13 -0.5q-11 -2 -21.5 -3t-20.5 -3q-43 -12 -72 -31.5t-48 -54.5q-5 -11 -8.5 -22.5t-6.5 -24.5q-2 -8 0 -15t6 -10
t13.5 -4.5t19.5 -1.5t19.5 1.5t13.5 4.5q7 5 9.5 14t5.5 17q5 11 11.5 20.5t14.5 15.5q16 11 33 17q12 4 29 6t35 2t34.5 -2t28.5 -7q21 -8 32.5 -22t17.5 -38q4 -15 0 -27.5t-10 -20.5q-13 -18 -35 -22.5t-47 -10.5q-8 -2 -15 -2.5t-14 -2.5q-8 -2 -14.5 -2t-13.5 -2
q-15 -3 -30 -5t-29 -6q-37 -11 -68 -25t-49 -43q-6 -9 -10 -20l-8 -22q-1 -6 -1.5 -11.5t-1.5 -10.5v-21q0 -31 9 -53q12 -30 30.5 -46.5t48.5 -29.5q7 -3 15 -4.5t16 -3.5q3 -1 5.5 -0.5t6.5 -0.5q4 -2 9 -2t10 -1h9q10 -2 21 0h7.5t8.5 1q11 2 22.5 3t21.5 4q17 5 32 11.5
t28 14.5q9 6 18.5 14t20.5 11q4 1 6.5 -1t4.5 -4q6 -6 10 -15.5t9 -16.5q8 -11 29.5 -18.5t43.5 -2.5q6 2 11.5 2t10.5 2q10 5 16 15.5t3 26.5zM377 149q-11 -29 -31.5 -46t-49.5 -29q-7 -3 -14.5 -4t-15.5 -3q-6 -2 -12 -1.5t-12 -1.5q-7 -2 -17.5 -1.5t-17.5 2.5
q-5 1 -10 1t-10 1q-15 5 -28 12.5t-21 18.5q-5 7 -8.5 15.5t-3.5 18.5q-1 22 4 37.5t15 26.5t24 18.5t30 12.5l14.5 3.5l14.5 3.5q15 4 32.5 4.5t32.5 4.5q4 0 7.5 0.5t6.5 0.5l20 4t18 4q4 2 9 2t7 2q11 0 14 -2q7 -5 8 -14t1 -20q0 -20 -0.5 -38.5t-6.5 -32.5zM317 729
q7 0 17.5 0.5t20 0t17.5 -2.5t11 -6q1 -4 -1 -11q-2 -6 -8 -12l-11 -11t-9.5 -10.5l-9.5 -11.5q-3 -5 -7.5 -8.5t-8.5 -8.5q-2 -2 -2.5 -3t-2.5 -2q-4 -5 -8 -8.5t-8 -8.5q-2 -4 -5.5 -7t-6.5 -6q-4 -5 -8.5 -10t-9.5 -8q-7 -4 -22.5 -6.5t-24.5 2.5q-3 2 -5.5 6.5
t-0.5 10.5q2 8 6 14.5t9 12.5l17 29l18 29l8 14.5t11 12.5t14 8q3 0 5.5 0.5t4.5 0.5z" />
    <glyph glyph-name="agrave" unicode="&#xe0;" horiz-adv-x="537" 
d="M520 38q-1 5 -1 8t-2 6q-4 8 -12 9.5t-17 5.5q-8 3 -13 10q-5 8 -6 21t-1 27v221q0 29 -1.5 55.5t-10.5 46.5q-21 48 -73 65t-122 16q-2 -2 -11 -1.5t-13 -0.5q-11 -2 -21.5 -3t-20.5 -3q-43 -12 -72 -31.5t-48 -54.5q-5 -11 -8.5 -22.5t-6.5 -24.5q-2 -8 0 -15t6 -10
t13.5 -4.5t19.5 -1.5t19.5 1.5t13.5 4.5q7 5 9.5 14t5.5 17q5 11 11.5 20.5t14.5 15.5q16 11 33 17q12 4 29 6t35 2t34.5 -2t28.5 -7q21 -8 32.5 -22t17.5 -38q4 -15 0 -27.5t-10 -20.5q-13 -18 -35 -22.5t-47 -10.5q-8 -2 -15 -2.5t-14 -2.5q-8 -2 -14.5 -2t-13.5 -2
q-15 -3 -30 -5t-29 -6q-37 -11 -68 -25t-49 -43q-6 -9 -10 -20l-8 -22q-1 -6 -1.5 -11.5t-1.5 -10.5v-21q0 -31 9 -53q12 -30 30.5 -46.5t48.5 -29.5q7 -3 15 -4.5t16 -3.5q3 -1 5.5 -0.5t6.5 -0.5q4 -2 9 -2t10 -1h9q10 -2 21 0h7.5t8.5 1q11 2 22.5 3t21.5 4q17 5 32 11.5
t28 14.5q9 6 18.5 14t20.5 11q4 1 6.5 -1t4.5 -4q6 -6 10 -15.5t9 -16.5q8 -11 29.5 -18.5t43.5 -2.5q6 2 11.5 2t10.5 2q10 5 16 15.5t3 26.5zM377 149q-11 -29 -31.5 -46t-49.5 -29q-7 -3 -14.5 -4t-15.5 -3q-6 -2 -12 -1.5t-12 -1.5q-7 -2 -17.5 -1.5t-17.5 2.5
q-5 1 -10 1t-10 1q-15 5 -28 12.5t-21 18.5q-5 7 -8.5 15.5t-3.5 18.5q-1 22 4 37.5t15 26.5t24 18.5t30 12.5l14.5 3.5l14.5 3.5q15 4 32.5 4.5t32.5 4.5q4 0 7.5 0.5t6.5 0.5l20 4t18 4q4 2 9 2t7 2q11 0 14 -2q7 -5 8 -14t1 -20q0 -20 -0.5 -38.5t-6.5 -32.5zM179 730
q14 0 31 0.5t28 -4.5q8 -3 12.5 -9.5t8.5 -13.5q9 -14 17 -28t17 -28l10.5 -17t10.5 -19q1 -3 1 -8t-2 -7q-3 -5 -10.5 -6.5t-15.5 -0.5t-15 3t-11 4q-5 4 -9.5 8.5t-8.5 9.5l-6 6q-2 3 -4.5 5.5t-4.5 5.5q-3 2 -5.5 5t-4.5 5q-8 11 -18.5 21t-18.5 21q-6 8 -15 15.5
t-9 21.5q2 3 3.5 4.5t6.5 3.5q3 1 6.5 0.5t5.5 1.5z" />
    <glyph glyph-name="acircumflex" unicode="&#xe2;" horiz-adv-x="537" 
d="M520 38q-1 5 -1 8t-2 6q-4 8 -12 9.5t-17 5.5q-8 3 -13 10q-5 8 -6 21t-1 27v221q0 29 -1.5 55.5t-10.5 46.5q-21 48 -73 65t-122 16q-2 -2 -11 -1.5t-13 -0.5q-11 -2 -21.5 -3t-20.5 -3q-43 -12 -72 -31.5t-48 -54.5q-5 -11 -8.5 -22.5t-6.5 -24.5q-2 -8 0 -15t6 -10
t13.5 -4.5t19.5 -1.5t19.5 1.5t13.5 4.5q7 5 9.5 14t5.5 17q5 11 11.5 20.5t14.5 15.5q16 11 33 17q12 4 29 6t35 2t34.5 -2t28.5 -7q21 -8 32.5 -22t17.5 -38q4 -15 0 -27.5t-10 -20.5q-13 -18 -35 -22.5t-47 -10.5q-8 -2 -15 -2.5t-14 -2.5q-8 -2 -14.5 -2t-13.5 -2
q-15 -3 -30 -5t-29 -6q-37 -11 -68 -25t-49 -43q-6 -9 -10 -20l-8 -22q-1 -6 -1.5 -11.5t-1.5 -10.5v-21q0 -31 9 -53q12 -30 30.5 -46.5t48.5 -29.5q7 -3 15 -4.5t16 -3.5q3 -1 5.5 -0.5t6.5 -0.5q4 -2 9 -2t10 -1h9q10 -2 21 0h7.5t8.5 1q11 2 22.5 3t21.5 4q17 5 32 11.5
t28 14.5q9 6 18.5 14t20.5 11q4 1 6.5 -1t4.5 -4q6 -6 10 -15.5t9 -16.5q8 -11 29.5 -18.5t43.5 -2.5q6 2 11.5 2t10.5 2q10 5 16 15.5t3 26.5zM377 149q-11 -29 -31.5 -46t-49.5 -29q-7 -3 -14.5 -4t-15.5 -3q-6 -2 -12 -1.5t-12 -1.5q-7 -2 -17.5 -1.5t-17.5 2.5
q-5 1 -10 1t-10 1q-15 5 -28 12.5t-21 18.5q-5 7 -8.5 15.5t-3.5 18.5q-1 22 4 37.5t15 26.5t24 18.5t30 12.5l14.5 3.5l14.5 3.5q15 4 32.5 4.5t32.5 4.5q4 0 7.5 0.5t6.5 0.5l20 4t18 4q4 2 9 2t7 2q11 0 14 -2q7 -5 8 -14t1 -20q0 -20 -0.5 -38.5t-6.5 -32.5zM243 729
q16 0 35.5 0.5t30.5 -4.5q9 -4 15.5 -12t11.5 -16l18 -25l18 -25q14 -18 26 -35q2 -3 2.5 -8.5t-1.5 -8.5t-9.5 -5t-16 -3t-17 -0.5t-13.5 2.5q-11 4 -17.5 12t-12.5 17q-6 8 -12 15t-11 15q-5 6 -9.5 12.5t-13.5 8.5t-16 -5.5t-10 -12.5l-12.5 -16.5l-12.5 -16.5
q-5 -8 -11 -15.5t-15 -11.5q-5 -2 -13 -3t-16.5 -0.5t-15.5 2.5t-8 6q-2 2 -1.5 6.5t1.5 6.5q4 8 8.5 14l9.5 13l39 54q5 7 10.5 16t12.5 14q8 6 15 7q2 1 5.5 0.5t5.5 1.5z" />
    <glyph glyph-name="adieresis" unicode="&#xe4;" horiz-adv-x="537" 
d="M520 38q3 -16 -3 -26.5t-16 -15.5q-5 -2 -10.5 -2t-11.5 -2q-22 -5 -43.5 2.5t-29.5 18.5q-5 7 -9 16.5t-10 15.5q-2 2 -4.5 4t-6.5 1q-11 -3 -20.5 -11t-18.5 -14q-13 -8 -28 -14.5t-32 -11.5q-10 -3 -21.5 -4t-22.5 -3q-5 -1 -8.5 -1h-7.5q-11 -2 -21 0h-9q-5 1 -10 1
t-9 2q-4 1 -6.5 0.5t-5.5 0.5q-8 2 -16 3.5t-15 4.5q-30 13 -48.5 29.5t-30.5 46.5q-9 22 -9 53v21q1 5 1.5 10.5t1.5 11.5l8 22t10 20q18 29 49 43t68 25q14 4 29 6t30 5q7 2 13.5 2t14.5 2q7 2 14 2.5t15 2.5q25 6 47 10.5t35 22.5q6 8 10 20.5t0 27.5q-6 24 -17.5 38
t-32.5 22q-12 5 -28.5 7t-34.5 2t-35 -2t-29 -6q-17 -6 -33 -17q-8 -6 -14.5 -15.5t-11.5 -20.5q-3 -8 -5.5 -17t-9.5 -14q-4 -3 -13.5 -4.5t-19.5 -1.5t-19.5 1.5t-13.5 4.5t-6 10t0 15q3 13 6.5 24.5t8.5 22.5q19 35 48 54.5t72 31.5q10 2 20.5 3t21.5 3q4 1 13 0.5
t11 1.5q70 1 122 -16t73 -65q9 -20 10.5 -46.5t1.5 -55.5v-221q0 -14 1 -27t6 -21q5 -7 13 -10q9 -4 17 -5.5t12 -9.5q2 -3 2 -6t1 -8zM377 149q6 14 6.5 32.5t0.5 38.5q0 11 -1 20t-8 14q-3 2 -14 2q-2 -2 -7 -2t-9 -2q-8 -2 -18 -4l-20 -4q-3 0 -6.5 -0.5t-7.5 -0.5
q-15 -4 -32.5 -4.5t-32.5 -4.5l-14.5 -3.5l-14.5 -3.5q-16 -5 -30 -12.5t-24 -18.5t-15 -26.5t-4 -37.5q0 -10 3.5 -18.5t8.5 -15.5q8 -11 21 -18.5t28 -12.5q5 -1 10 -1t10 -1q7 -2 17.5 -2.5t17.5 1.5q6 2 12 1.5t12 1.5q8 2 15.5 3t14.5 4q29 12 49.5 29t31.5 46z
M219 662q1 -5 1 -11v-11q0 -16 -2 -28t-13 -17q-5 -2 -11 -2h-12q-13 0 -24 0.5t-18 5.5q-8 6 -8 21.5v29.5v17t3 15q4 9 16 12q2 1 4.5 0.5t4.5 0.5q17 0 34.5 -0.5t22.5 -13.5q1 -2 1 -5t1 -5v-9zM407 653v-34.5t-13 -23.5q-5 -2 -11.5 -2h-14.5q-14 0 -26 0.5t-18 8.5
q-5 6 -5 17.5v22.5q0 5 -0.5 9.5t0.5 7.5v10q1 3 1 6.5t2 5.5q3 8 14 12q3 1 5.5 1t4.5 1h34t23 -11q4 -5 4 -14v-17z" />
    <glyph glyph-name="atilde" unicode="&#xe3;" horiz-adv-x="537" 
d="M520 38q-1 5 -1 8t-2 6q-4 8 -12 9.5t-17 5.5q-8 3 -13 10q-5 8 -6 21t-1 27v221q0 29 -1.5 55.5t-10.5 46.5q-21 48 -73 65t-122 16q-2 -2 -11 -1.5t-13 -0.5q-11 -2 -21.5 -3t-20.5 -3q-43 -12 -72 -31.5t-48 -54.5q-5 -11 -8.5 -22.5t-6.5 -24.5q-2 -8 0 -15t6 -10
t13.5 -4.5t19.5 -1.5t19.5 1.5t13.5 4.5q7 5 9.5 14t5.5 17q5 11 11.5 20.5t14.5 15.5q16 11 33 17q12 4 29 6t35 2t34.5 -2t28.5 -7q21 -8 32.5 -22t17.5 -38q4 -15 0 -27.5t-10 -20.5q-13 -18 -35 -22.5t-47 -10.5q-8 -2 -15 -2.5t-14 -2.5q-8 -2 -14.5 -2t-13.5 -2
q-15 -3 -30 -5t-29 -6q-37 -11 -68 -25t-49 -43q-6 -9 -10 -20l-8 -22q-1 -6 -1.5 -11.5t-1.5 -10.5v-21q0 -31 9 -53q12 -30 30.5 -46.5t48.5 -29.5q7 -3 15 -4.5t16 -3.5q3 -1 5.5 -0.5t6.5 -0.5q4 -2 9 -2t10 -1h9q10 -2 21 0h7.5t8.5 1q11 2 22.5 3t21.5 4q17 5 32 11.5
t28 14.5q9 6 18.5 14t20.5 11q4 1 6.5 -1t4.5 -4q6 -6 10 -15.5t9 -16.5q8 -11 29.5 -18.5t43.5 -2.5q6 2 11.5 2t10.5 2q10 5 16 15.5t3 26.5zM377 149q-11 -29 -31.5 -46t-49.5 -29q-7 -3 -14.5 -4t-15.5 -3q-6 -2 -12 -1.5t-12 -1.5q-7 -2 -17.5 -1.5t-17.5 2.5
q-5 1 -10 1t-10 1q-15 5 -28 12.5t-21 18.5q-5 7 -8.5 15.5t-3.5 18.5q-1 22 4 37.5t15 26.5t24 18.5t30 12.5l14.5 3.5l14.5 3.5q15 4 32.5 4.5t32.5 4.5q4 0 7.5 0.5t6.5 0.5l20 4t18 4q4 2 9 2t7 2q11 0 14 -2q7 -5 8 -14t1 -20q0 -20 -0.5 -38.5t-6.5 -32.5zM411 710
q16 0 21.5 -9.5t0.5 -24.5q-7 -18 -16.5 -34t-24.5 -25q-14 -9 -37 -14t-45 2q-20 5 -38.5 13t-38.5 15q-6 2 -12.5 2.5t-12.5 2.5q-5 1 -10.5 0.5t-8.5 -1.5q-8 -3 -15.5 -6.5t-12.5 -9.5l-8 -10t-9 -8q-8 -5 -19 -4t-15 9q-2 5 -1 10t2 8q8 20 16 34q6 10 13 18t17 14
q12 7 29 12q8 2 19.5 1.5t19.5 -2.5q6 -2 11 -2t10 -2q25 -9 47 -19q10 -5 24 -9q3 -1 6 -1t7 -1q3 -1 7.5 -1.5t7.5 0.5q9 2 16.5 5t12.5 9q4 5 8 11t9 9q4 4 11 6q2 1 4.5 1t4.5 1z" />
    <glyph glyph-name="aring" unicode="&#xe5;" horiz-adv-x="537" 
d="M520 38q3 -16 -3 -26.5t-16 -15.5q-5 -2 -10.5 -2t-11.5 -2q-22 -5 -43.5 2.5t-29.5 18.5q-5 7 -9 16.5t-10 15.5q-2 2 -4.5 4t-6.5 1q-11 -3 -20.5 -11t-18.5 -14q-13 -8 -28 -14.5t-32 -11.5q-10 -3 -21.5 -4t-22.5 -3q-5 -1 -8.5 -1h-7.5q-11 -2 -21 0h-9q-5 1 -10 1
t-9 2q-4 1 -6.5 0.5t-5.5 0.5q-8 2 -16 3.5t-15 4.5q-30 13 -48.5 29.5t-30.5 46.5q-9 22 -9 53v21q1 5 1.5 10.5t1.5 11.5l8 22t10 20q18 29 49 43t68 25q14 4 29 6t30 5q7 2 13.5 2t14.5 2q7 2 14 2.5t15 2.5q25 6 47 10.5t35 22.5q6 8 10 20.5t0 27.5q-6 24 -17.5 38
t-32.5 22q-12 5 -28.5 7t-34.5 2t-35 -2t-29 -6q-17 -6 -33 -17q-8 -6 -14.5 -15.5t-11.5 -20.5q-3 -8 -5.5 -17t-9.5 -14q-4 -3 -13.5 -4.5t-19.5 -1.5t-19.5 1.5t-13.5 4.5t-6 10t0 15q3 13 6.5 24.5t8.5 22.5q19 35 48 54.5t72 31.5q10 2 20.5 3t21.5 3q4 1 13 0.5
t11 1.5q70 1 122 -16t73 -65q9 -20 10.5 -46.5t1.5 -55.5v-221q0 -14 1 -27t6 -21q5 -7 13 -10q9 -4 17 -5.5t12 -9.5q2 -3 2 -6t1 -8zM377 149q6 14 6.5 32.5t0.5 38.5q0 11 -1 20t-8 14q-3 2 -14 2q-2 -2 -7 -2t-9 -2q-8 -2 -18 -4l-20 -4q-3 0 -6.5 -0.5t-7.5 -0.5
q-15 -4 -32.5 -4.5t-32.5 -4.5l-14.5 -3.5l-14.5 -3.5q-16 -5 -30 -12.5t-24 -18.5t-15 -26.5t-4 -37.5q0 -10 3.5 -18.5t8.5 -15.5q8 -11 21 -18.5t28 -12.5q5 -1 10 -1t10 -1q7 -2 17.5 -2.5t17.5 1.5q6 2 12 1.5t12 1.5q8 2 15.5 3t14.5 4q29 12 49.5 29t31.5 46z
M372 701q8 -18 7.5 -42t-8.5 -41q-19 -43 -66 -62q-5 -2 -11 -3t-12 -3q-2 -1 -5 -0.5t-6 -0.5t-7 -0.5t-7 1.5q-2 0 -4.5 0.5t-5.5 0.5l-13.5 4t-12.5 5q-21 11 -36 27.5t-23 41.5q-2 8 -4 21.5t0 24.5q2 5 2.5 10.5t2.5 10.5q10 23 25.5 40.5t38.5 27.5q5 2 11 3.5t12 3.5
q4 0 7.5 0.5t7.5 0.5q41 1 68 -21t39 -50zM334 647q2 10 0.5 21t-4.5 18q-8 20 -24 31t-45 11q-2 -1 -3.5 -0.5t-3.5 -0.5q-3 -1 -6.5 -1.5t-6.5 -2.5q-25 -10 -36 -37q-2 -3 -2.5 -7t-1.5 -7q-2 -8 -1 -16t3 -13q10 -32 40 -45q5 -2 14.5 -4.5t17.5 -0.5q5 2 9 2t8 2
q12 5 22 13.5t15 20.5q2 4 3 7.5t2 8.5z" />
    <glyph glyph-name="ccedilla" unicode="&#xe7;" horiz-adv-x="537" 
d="M272 527q73 2 122.5 -21.5t78.5 -66.5q15 -24 24 -55q2 -8 0.5 -16t-6.5 -12q-4 -3 -14 -4.5t-21.5 -1t-21 2t-13.5 4.5q-8 5 -13.5 20t-11.5 24q-20 32 -63 46q-5 2 -10 2.5t-10 1.5q-6 2 -14 2h-16h-9q-6 -1 -11.5 -1.5t-11.5 -1.5q-11 -2 -21.5 -5.5t-18.5 -8.5
q-30 -18 -46.5 -40.5t-27.5 -58.5q-3 -9 -4.5 -18.5t-3.5 -19.5q0 -4 -0.5 -7t-0.5 -7q-1 -4 -1 -8v-9v-9q-2 -6 0 -12q1 -5 0 -10.5t0 -9.5q1 -5 1 -9t1 -9q2 -7 2.5 -13.5t2.5 -13.5q4 -11 7 -20.5t8 -19.5q11 -25 30.5 -43t45.5 -29q5 -2 10.5 -2.5t11.5 -2.5
q7 -2 19 -3.5t21 0.5h12q7 2 14 3t14 3q11 4 21.5 8.5t19.5 11.5q14 10 23.5 23.5t16.5 30.5q4 8 6.5 18t7.5 17q5 6 13 8q4 2 8 1t9 1q8 2 20.5 0.5t17.5 -3.5q5 -1 9 -9q2 -5 1.5 -10.5t-2.5 -10.5q-6 -22 -13 -38q-36 -82 -119 -114q-10 -3 -19.5 -5t-20.5 -4
q-8 -2 -14.5 -3t-13.5 -3q-3 -2 -7 -6q-11 -8 -10 -22l3.5 -3.5t4.5 -2.5q4 -2 8.5 -1.5t9.5 -1.5q7 -2 13.5 -3t11.5 -3q15 -6 26.5 -16.5t16.5 -26.5q1 -4 1.5 -7t1.5 -7v-6q1 -5 0 -11.5t-2 -11.5q-4 -14 -14 -27q-3 -5 -8 -8.5t-10 -7.5q-10 -7 -24.5 -13t-31.5 -9
t-35.5 -3t-35.5 5q-12 3 -24 5.5t-18 11.5q-3 6 -2 12t4.5 11.5t9.5 8t13 1.5q22 -5 47 -5t41 11q5 3 10.5 10t1.5 17q-4 13 -14.5 17t-24.5 7h-6t-6 -1h-6q-9 -2 -17.5 0t-13.5 7q-2 4 -3.5 10t1.5 12q4 9 10 17l12 16q3 5 5.5 11t-2.5 13q-2 3 -6 4t-8 3q-9 4 -19.5 6
t-19.5 6q-28 11 -50 27q-6 4 -11 8.5t-10 8.5q-2 2 -3 3.5t-3 3.5l-9 9q-9 12 -17 24q-8 14 -15 29t-13 32q-2 8 -4 17l-4 18q-2 10 -2.5 20.5t-2.5 21.5v10q-1 5 -1 14t1 14v10q2 9 2 18.5t2 18.5q3 12 5 24t6 23q8 24 18.5 45t24.5 40q2 3 6 6t6 7q4 5 9 9.5t10 8.5l10 8
t11 8q14 8 29.5 14.5t32.5 11.5q9 3 19 4.5t20 3.5q4 1 12.5 0t10.5 1z" />
    <glyph glyph-name="eacute" unicode="&#xe9;" horiz-adv-x="537" 
d="M317 729q7 0 17.5 0.5t20 0t17.5 -2.5t11 -6q1 -4 -1 -11q-2 -6 -8 -12l-11 -11t-9.5 -10.5l-9.5 -11.5q-3 -5 -7.5 -8.5t-8.5 -8.5q-2 -2 -2.5 -3t-2.5 -2q-4 -5 -8 -8.5t-8 -8.5q-2 -4 -5.5 -7t-6.5 -6q-4 -5 -8.5 -10t-9.5 -8q-7 -4 -22.5 -6.5t-24.5 2.5
q-3 2 -5.5 6.5t-0.5 10.5q2 8 6 14.5t9 12.5l17 29l18 29l8 14.5t11 12.5t14 8q3 0 5.5 0.5t4.5 0.5zM511 279q-1 7 -1.5 14t-1.5 14q-4 14 -6.5 28t-7.5 27t-9 26t-11 24q-11 19 -27 40q-6 8 -14.5 16t-16.5 14q-4 2 -7 5.5t-8 5.5q-25 16 -56 25.5t-73 8.5q-2 -2 -5 -1
t-5 0q-5 0 -9 -0.5t-9 -1.5l-26.5 -5.5t-24.5 -7.5q-41 -17 -69 -42.5t-50 -60.5q-6 -11 -10.5 -22.5t-9.5 -22.5q-6 -14 -8.5 -30t-6.5 -32q-1 -5 -0.5 -10.5t-1.5 -10.5v-11q-1 -5 -0.5 -12.5t1.5 -11.5v-14q2 -9 3 -18t3 -17q1 -5 1 -8t1 -7q4 -12 6.5 -24t7.5 -23
q14 -34 34.5 -61.5t49.5 -46.5q17 -10 32 -17q4 -2 7 -2.5t7 -2.5q8 -3 17 -5.5t18 -4.5q5 -1 11 -1.5t11 -1.5q4 -1 8 -1t9 -1h9q4 -1 10.5 -1t11.5 1h10q5 1 9.5 1t9.5 1q11 2 21 3.5t20 5.5q39 13 64.5 33.5t45.5 52.5q13 21 21 48q5 16 -5 23q-3 3 -11 4t-17 1.5
t-18 -0.5t-13 -3q-11 -5 -15.5 -16t-10.5 -21q-6 -11 -14 -20.5t-19 -16.5q-10 -7 -21.5 -11.5t-25.5 -8.5t-37 -4t-37 4q-7 0 -10 1l-14 4t-13 5q-53 23 -76 77q-4 8 -6 16.5l-4 16.5q-1 4 -1 8t-1 9q-2 5 0 10.5t4 8.5q4 6 8 8q5 3 13 3.5t16 0.5h256q9 0 21 -0.5t24 -0.5
t21.5 1.5t14.5 5.5q5 5 6.5 17.5t-0.5 22.5zM414 313q-7 -8 -28 -7.5t-36 0.5h-152q-14 0 -33.5 -0.5t-27.5 5.5q-6 4 -7 12t1 17t5 16.5t6 12.5q14 27 31.5 45t46.5 30q7 2 14.5 3.5t15.5 3.5q3 1 7 0.5t7 1.5h17t17 -2t15 -3.5t14 -3.5q27 -11 44 -27t31 -39
q11 -19 17 -41q2 -7 0 -13.5t-5 -10.5z" />
    <glyph glyph-name="egrave" unicode="&#xe8;" horiz-adv-x="537" 
d="M179 730q14 0 31 0.5t28 -4.5q8 -3 12.5 -9.5t8.5 -13.5q9 -14 17 -28t17 -28l10.5 -17t10.5 -19q1 -3 1 -8t-2 -7q-3 -5 -10.5 -6.5t-15.5 -0.5t-15 3t-11 4q-5 4 -9.5 8.5t-8.5 9.5l-6 6q-2 3 -4.5 5.5t-4.5 5.5q-3 2 -5.5 5t-4.5 5q-8 11 -18.5 21t-18.5 21
q-6 8 -15 15.5t-9 21.5q2 3 3.5 4.5t6.5 3.5q3 1 6.5 0.5t5.5 1.5zM511 279q-1 7 -1.5 14t-1.5 14q-4 14 -6.5 28t-7.5 27t-9 26t-11 24q-11 19 -27 40q-6 8 -14.5 16t-16.5 14q-4 2 -7 5.5t-8 5.5q-25 16 -56 25.5t-73 8.5q-2 -2 -5 -1t-5 0q-5 0 -9 -0.5t-9 -1.5
l-26.5 -5.5t-24.5 -7.5q-41 -17 -69 -42.5t-50 -60.5q-6 -11 -10.5 -22.5t-9.5 -22.5q-6 -14 -8.5 -30t-6.5 -32q-1 -5 -0.5 -10.5t-1.5 -10.5v-11q-1 -5 -0.5 -12.5t1.5 -11.5v-14q2 -9 3 -18t3 -17q1 -5 1 -8t1 -7q4 -12 6.5 -24t7.5 -23q14 -34 34.5 -61.5t49.5 -46.5
q17 -10 32 -17q4 -2 7 -2.5t7 -2.5q8 -3 17 -5.5t18 -4.5q5 -1 11 -1.5t11 -1.5q4 -1 8 -1t9 -1h9q4 -1 10.5 -1t11.5 1h10q5 1 9.5 1t9.5 1q11 2 21 3.5t20 5.5q39 13 64.5 33.5t45.5 52.5q13 21 21 48q5 16 -5 23q-3 3 -11 4t-17 1.5t-18 -0.5t-13 -3q-11 -5 -15.5 -16
t-10.5 -21q-6 -11 -14 -20.5t-19 -16.5q-10 -7 -21.5 -11.5t-25.5 -8.5t-37 -4t-37 4q-7 0 -10 1l-14 4t-13 5q-53 23 -76 77q-4 8 -6 16.5l-4 16.5q-1 4 -1 8t-1 9q-2 5 0 10.5t4 8.5q4 6 8 8q5 3 13 3.5t16 0.5h256q9 0 21 -0.5t24 -0.5t21.5 1.5t14.5 5.5q5 5 6.5 17.5
t-0.5 22.5zM414 313q-7 -8 -28 -7.5t-36 0.5h-152q-14 0 -33.5 -0.5t-27.5 5.5q-6 4 -7 12t1 17t5 16.5t6 12.5q14 27 31.5 45t46.5 30q7 2 14.5 3.5t15.5 3.5q3 1 7 0.5t7 1.5h17t17 -2t15 -3.5t14 -3.5q27 -11 44 -27t31 -39q11 -19 17 -41q2 -7 0 -13.5t-5 -10.5z" />
    <glyph glyph-name="ecircumflex" unicode="&#xea;" horiz-adv-x="537" 
d="M242 729q16 0 35.5 0.5t30.5 -4.5q9 -4 15.5 -12t11.5 -16l18 -25l18 -25q14 -18 26 -35q2 -3 2.5 -8.5t-1.5 -8.5t-9.5 -5t-16 -3t-17 -0.5t-13.5 2.5q-11 4 -17.5 12t-12.5 17q-6 8 -12 15t-11 15q-5 6 -9.5 12.5t-13.5 8.5t-16 -5.5t-10 -12.5l-12.5 -16.5
l-12.5 -16.5q-5 -8 -11 -15.5t-15 -11.5q-5 -2 -13 -3t-16.5 -0.5t-15.5 2.5t-8 6q-2 2 -1.5 6.5t1.5 6.5q4 8 8.5 14l9.5 13l39 54q5 7 10.5 16t12.5 14q8 6 15 7q2 1 5.5 0.5t5.5 1.5zM511 279q-1 7 -1.5 14t-1.5 14q-4 14 -6.5 28t-7.5 27t-9 26t-11 24q-11 19 -27 40
q-6 8 -14.5 16t-16.5 14q-4 2 -7 5.5t-8 5.5q-25 16 -56 25.5t-73 8.5q-2 -2 -5 -1t-5 0q-5 0 -9 -0.5t-9 -1.5l-26.5 -5.5t-24.5 -7.5q-41 -17 -69 -42.5t-50 -60.5q-6 -11 -10.5 -22.5t-9.5 -22.5q-6 -14 -8.5 -30t-6.5 -32q-1 -5 -0.5 -10.5t-1.5 -10.5v-11
q-1 -5 -0.5 -12.5t1.5 -11.5v-14q2 -9 3 -18t3 -17q1 -5 1 -8t1 -7q4 -12 6.5 -24t7.5 -23q14 -34 34.5 -61.5t49.5 -46.5q17 -10 32 -17q4 -2 7 -2.5t7 -2.5q8 -3 17 -5.5t18 -4.5q5 -1 11 -1.5t11 -1.5q4 -1 8 -1t9 -1h9q4 -1 10.5 -1t11.5 1h10q5 1 9.5 1t9.5 1
q11 2 21 3.5t20 5.5q39 13 64.5 33.5t45.5 52.5q13 21 21 48q5 16 -5 23q-3 3 -11 4t-17 1.5t-18 -0.5t-13 -3q-11 -5 -15.5 -16t-10.5 -21q-6 -11 -14 -20.5t-19 -16.5q-10 -7 -21.5 -11.5t-25.5 -8.5t-37 -4t-37 4q-7 0 -10 1l-14 4t-13 5q-53 23 -76 77q-4 8 -6 16.5
l-4 16.5q-1 4 -1 8t-1 9q-2 5 0 10.5t4 8.5q4 6 8 8q5 3 13 3.5t16 0.5h256q9 0 21 -0.5t24 -0.5t21.5 1.5t14.5 5.5q5 5 6.5 17.5t-0.5 22.5zM414 313q-7 -8 -28 -7.5t-36 0.5h-152q-14 0 -33.5 -0.5t-27.5 5.5q-6 4 -7 12t1 17t5 16.5t6 12.5q14 27 31.5 45t46.5 30
q7 2 14.5 3.5t15.5 3.5q3 1 7 0.5t7 1.5h17t17 -2t15 -3.5t14 -3.5q27 -11 44 -27t31 -39q11 -19 17 -41q2 -7 0 -13.5t-5 -10.5z" />
    <glyph glyph-name="edieresis" unicode="&#xeb;" horiz-adv-x="537" 
d="M219 662q1 -5 1 -11v-11q0 -16 -2 -28t-13 -17q-5 -2 -11 -2h-12q-13 0 -24 0.5t-18 5.5q-8 6 -8 21.5v29.5v17t3 15q4 9 16 12q2 1 4.5 0.5t4.5 0.5q17 0 34.5 -0.5t22.5 -13.5q1 -2 1 -5t1 -5v-9zM407 653v-34.5t-13 -23.5q-5 -2 -11.5 -2h-14.5q-14 0 -26 0.5t-18 8.5
q-5 6 -5 17.5v22.5q0 5 -0.5 9.5t0.5 7.5v10q1 3 1 6.5t2 5.5q3 8 14 12q3 1 5.5 1t4.5 1h34t23 -11q4 -5 4 -14v-17zM511 279q2 -10 0.5 -22.5t-6.5 -17.5q-5 -4 -14.5 -5.5t-21.5 -1.5t-24 0.5t-21 0.5h-256q-8 0 -16 -0.5t-13 -3.5q-4 -2 -8 -8q-2 -3 -4 -8.5t0 -10.5
q1 -5 1 -9t1 -8l4 -16.5t6 -16.5q23 -54 76 -77q6 -3 13 -5l14 -4q3 -1 10 -1q14 -4 37 -4t37 4t25.5 8.5t21.5 11.5q11 7 19 16.5t14 20.5q6 10 10.5 21t15.5 16q4 2 13 3t18 0.5t17 -1.5t11 -4q10 -7 5 -23q-8 -27 -21 -48q-20 -32 -45.5 -52.5t-64.5 -33.5
q-10 -4 -20 -5.5t-21 -3.5q-5 -1 -9.5 -1t-9.5 -1h-10q-5 -1 -11.5 -1t-10.5 1h-9q-5 1 -9 1t-8 1q-5 1 -11 1.5t-11 1.5q-9 2 -18 4.5t-17 5.5q-4 2 -7 2.5t-7 2.5q-15 7 -32 17q-29 19 -49.5 46.5t-34.5 61.5q-5 11 -7.5 23t-6.5 24q-1 4 -1 7t-1 8q-2 8 -3 17t-3 18v14
q-1 4 -1.5 11.5t0.5 12.5v11q2 5 1.5 10.5t0.5 10.5q4 16 6.5 32t8.5 30q5 11 9.5 22.5t10.5 22.5q22 35 50 60.5t69 42.5q12 5 24.5 7.5l26.5 5.5q5 1 9 1.5t9 0.5q2 1 5 0t5 1q42 1 73 -8.5t56 -25.5q5 -2 8 -5.5t7 -5.5q8 -6 16.5 -14t14.5 -16q16 -21 27 -40
q7 -11 11 -24t9 -26t7.5 -27t6.5 -28q1 -7 1.5 -14t1.5 -14zM414 313q3 4 5 10.5t0 13.5q-6 22 -17 41q-14 23 -31 39t-44 27q-7 2 -14 3.5t-15 3.5t-17 2h-17q-3 -2 -7 -1.5t-7 -0.5q-8 -2 -15.5 -3.5t-14.5 -3.5q-29 -12 -46.5 -30t-31.5 -45q-3 -5 -6 -12.5t-5 -16.5
t-1 -17t7 -12q8 -6 27.5 -5.5t33.5 0.5h152q15 0 36 -0.5t28 7.5z" />
    <glyph glyph-name="iacute" unicode="&#xed;" horiz-adv-x="222" 
d="M157 729q7 0 17.5 0.5t20 0t17.5 -2.5t11 -6q1 -4 -1 -11q-2 -6 -8 -12l-11 -11t-9.5 -10.5l-9.5 -11.5q-3 -5 -7.5 -8.5t-8.5 -8.5q-2 -2 -2.5 -3t-2.5 -2q-4 -5 -8 -8.5t-8 -8.5q-2 -4 -5.5 -7t-6.5 -6q-4 -5 -8.5 -10t-9.5 -8q-7 -4 -22.5 -6.5t-24.5 2.5
q-3 2 -5.5 6.5t-0.5 10.5q2 8 6 14.5t9 12.5l17 29l18 29l8 14.5t11 12.5t14 8q3 0 5.5 0.5t4.5 0.5zM154 472v19.5t-5 15.5q-5 8 -18.5 8.5t-26.5 0.5q-2 -1 -4.5 -0.5t-4.5 0.5q-6 -2 -11 -3t-8 -6q-5 -6 -5 -16.5v-21.5v-423v-18.5t4 -15.5q5 -8 14.5 -9.5t22.5 -1.5h15
l14 3.5t9 7.5q5 6 4.5 16.5t-0.5 20.5v423z" />
    <glyph glyph-name="igrave" unicode="&#xec;" horiz-adv-x="222" 
d="M23 730q14 0 31 0.5t28 -4.5q8 -3 12.5 -9.5t8.5 -13.5q9 -14 17 -28t17 -28l10.5 -17t10.5 -19q1 -3 1 -8t-2 -7q-3 -5 -10.5 -6.5t-15.5 -0.5t-15 3t-11 4q-5 4 -9.5 8.5t-8.5 9.5l-6 6q-2 3 -4.5 5.5t-4.5 5.5q-3 2 -5.5 5t-4.5 5q-8 11 -18.5 21t-18.5 21
q-6 8 -15 15.5t-9 21.5q2 3 3.5 4.5t6.5 3.5q3 1 6.5 0.5t5.5 1.5zM154 472v19.5t-5 15.5q-5 8 -18.5 8.5t-26.5 0.5q-2 -1 -4.5 -0.5t-4.5 0.5q-6 -2 -11 -3t-8 -6q-5 -6 -5 -16.5v-21.5v-423v-18.5t4 -15.5q5 -8 14.5 -9.5t22.5 -1.5h15l14 3.5t9 7.5q5 6 4.5 16.5
t-0.5 20.5v423z" />
    <glyph glyph-name="icircumflex" unicode="&#xee;" horiz-adv-x="222" 
d="M86 729q16 0 35.5 0.5t30.5 -4.5q9 -4 15.5 -12t11.5 -16l18 -25l18 -25q14 -18 26 -35q2 -3 2.5 -8.5t-1.5 -8.5t-9.5 -5t-16 -3t-17 -0.5t-13.5 2.5q-11 4 -17.5 12t-12.5 17q-6 8 -12 15t-11 15q-5 6 -9.5 12.5t-13.5 8.5t-16 -5.5t-10 -12.5l-12.5 -16.5l-12.5 -16.5
q-5 -8 -11 -15.5t-15 -11.5q-5 -2 -13 -3t-16.5 -0.5t-15.5 2.5t-8 6q-2 2 -1.5 6.5t1.5 6.5q4 8 8.5 14l9.5 13l39 54q5 7 10.5 16t12.5 14q8 6 15 7q2 1 5.5 0.5t5.5 1.5zM154 472v19.5t-5 15.5q-5 8 -18.5 8.5t-26.5 0.5q-2 -1 -4.5 -0.5t-4.5 0.5q-6 -2 -11 -3t-8 -6
q-5 -6 -5 -16.5v-21.5v-423v-18.5t4 -15.5q5 -8 14.5 -9.5t22.5 -1.5h15l14 3.5t9 7.5q5 6 4.5 16.5t-0.5 20.5v423z" />
    <glyph glyph-name="idieresis" unicode="&#xef;" horiz-adv-x="222" 
d="M61 662q1 -5 1 -11v-11q0 -16 -2 -28t-13 -17q-5 -2 -11 -2h-12q-13 0 -24 0.5t-18 5.5q-8 6 -8 21.5v29.5v17t3 15q4 9 16 12q2 1 4.5 0.5t4.5 0.5q17 0 34.5 -0.5t22.5 -13.5q1 -2 1 -5t1 -5v-9zM249 653v-34.5t-13 -23.5q-5 -2 -11.5 -2h-14.5q-14 0 -26 0.5t-18 8.5
q-5 6 -5 17.5v22.5q0 5 -0.5 9.5t0.5 7.5v10q1 3 1 6.5t2 5.5q3 8 14 12q3 1 5.5 1t4.5 1h34t23 -11q4 -5 4 -14v-17zM154 49q0 -10 0.5 -20.5t-4.5 -16.5q-3 -6 -9 -7.5l-14 -3.5h-15q-13 0 -22.5 1.5t-14.5 9.5q-4 6 -4 15.5v18.5v423v21.5t5 16.5q3 5 8 6t11 3
q2 0 4.5 -0.5t4.5 0.5q13 0 26.5 -0.5t18.5 -8.5q5 -6 5 -15.5v-19.5v-423z" />
    <glyph glyph-name="ntilde" unicode="&#xf1;" 
d="M421 710q16 0 21.5 -9.5t0.5 -24.5q-7 -18 -16.5 -34t-24.5 -25q-14 -9 -37 -14t-45 2q-20 5 -38.5 13t-38.5 15q-6 2 -12.5 2.5t-12.5 2.5q-5 1 -10.5 0.5t-8.5 -1.5q-8 -3 -15.5 -6.5t-12.5 -9.5l-8 -10t-9 -8q-8 -5 -19 -4t-15 9q-2 5 -1 10t2 8q8 20 16 34
q6 10 13 18t17 14q12 7 29 12q8 2 19.5 1.5t19.5 -2.5q6 -2 11 -2t10 -2q25 -9 47 -19q10 -5 24 -9q3 -1 6 -1t7 -1q3 -1 7.5 -1.5t7.5 0.5q9 2 16.5 5t12.5 9q4 5 8 11t9 9q4 4 11 6q2 1 4.5 1t4.5 1zM307 526q63 2 101 -17t61 -57q6 -10 9.5 -21.5t6.5 -23.5q5 -19 6 -41
t1 -45v-107v-156q0 -17 -0.5 -34t-13.5 -22q-5 -2 -10.5 -2.5t-11.5 -0.5q-13 0 -25 0.5t-17 8.5q-5 7 -5 18v22v86v163q0 27 -1 53.5t-9 45.5q-8 20 -24 32.5t-37 19.5q-6 2 -12.5 2.5t-12.5 2.5q-5 1 -15.5 0.5t-14.5 -1.5q-4 -2 -7 -1.5t-7 -0.5q-13 -3 -24.5 -6.5
t-21.5 -9.5q-4 -2 -7 -4t-7 -4q-35 -25 -51 -75q-3 -8 -4 -16.5t-3 -16.5q-2 -5 -1 -9.5t-1 -8.5v-21q-1 -3 -0.5 -7t0.5 -9v-30v-96v-88v-22.5t-5 -18.5q-5 -8 -17.5 -8.5t-25.5 -0.5q-8 0 -15 1t-12 5q-8 5 -8 19v27v118v242v61v18t4 14q3 6 10 8q4 1 11.5 2t15.5 1
t15.5 -1t10.5 -3q11 -7 10 -17.5t3 -23.5q2 -6 8 -10q12 -1 19.5 9t15.5 16q14 10 28.5 18.5t33.5 14.5q8 3 17.5 4t18.5 3q5 1 10 1h10z" />
    <glyph glyph-name="oacute" unicode="&#xf3;" horiz-adv-x="574" 
d="M333 729q7 0 17.5 0.5t20 0t17.5 -2.5t11 -6q1 -4 -1 -11q-2 -6 -8 -12l-11 -11t-9.5 -10.5l-9.5 -11.5q-3 -5 -7.5 -8.5t-8.5 -8.5q-2 -2 -2.5 -3t-2.5 -2q-4 -5 -8 -8.5t-8 -8.5q-2 -4 -5.5 -7t-6.5 -6q-4 -5 -8.5 -10t-9.5 -8q-7 -4 -22.5 -6.5t-24.5 2.5
q-3 2 -5.5 6.5t-0.5 10.5q2 8 6 14.5t9 12.5l17 29l18 29l8 14.5t11 12.5t14 8q3 0 5.5 0.5t4.5 0.5zM536 281q-1 5 -0.5 10.5t-0.5 10.5q-3 13 -5 25.5t-5 23.5q-4 11 -7 21t-8 20q-26 61 -85 99t-148 37q-6 -1 -12.5 -1.5t-13.5 -0.5q-14 -4 -28 -5.5t-26 -6.5l-27 -11.5
t-25 -13.5q-31 -20 -52.5 -49.5t-36.5 -66.5q-5 -11 -7.5 -23t-5.5 -24q-1 -5 -1.5 -8.5t-1.5 -8.5q-2 -7 -1 -14t-1 -14q-2 -6 -2 -18.5t1 -17.5t1 -8.5v-8.5q2 -8 2.5 -16.5t2.5 -16.5q1 -4 0.5 -6.5t1.5 -6.5q2 -11 4.5 -21t7.5 -20q19 -46 48 -78t74 -52q12 -5 25 -9
l27 -8l24 -3h6q3 -1 7 -0.5t8 -0.5q3 -1 10.5 -1t11.5 1q6 0 12.5 0.5t12.5 1.5l25.5 4t23.5 6q51 17 86 49.5t56 80.5q5 11 8 24t7 26q2 6 2.5 12t2.5 12q1 8 1.5 14.5t1.5 14.5v10q1 5 1 17.5t-2 18.5zM447 224q-4 -14 -5.5 -27.5t-6.5 -25.5q-14 -34 -35 -59t-55 -39
q-7 -3 -15 -4.5t-16 -3.5q-4 -2 -8 -1.5t-8 -0.5q-5 -2 -14.5 -1t-12.5 2q-5 1 -9.5 0.5t-9.5 1.5q-11 3 -20.5 6.5t-17.5 8.5q-5 3 -9 5t-9 5q-20 14 -33.5 35t-23.5 45q-4 8 -5.5 17.5t-3.5 19.5l-2 12q-2 8 -2 18v20q0 5 -0.5 9t0.5 7q0 9 1 13q2 11 3 21.5t4 20.5
q11 32 26 56t39 41q5 4 11 8t13 6q8 4 16.5 6.5t18.5 4.5l18 3h18t17 -2t16 -3.5t15 -4.5q61 -25 89 -90q3 -7 5 -15t5 -16q7 -27 7 -66q0 -8 0.5 -17t-1.5 -16z" />
    <glyph glyph-name="ograve" unicode="&#xf2;" horiz-adv-x="574" 
d="M196 730q14 0 31 0.5t28 -4.5q8 -3 12.5 -9.5t8.5 -13.5q9 -14 17 -28t17 -28l10.5 -17t10.5 -19q1 -3 1 -8t-2 -7q-3 -5 -10.5 -6.5t-15.5 -0.5t-15 3t-11 4q-5 4 -9.5 8.5t-8.5 9.5l-6 6q-2 3 -4.5 5.5t-4.5 5.5q-3 2 -5.5 5t-4.5 5q-8 11 -18.5 21t-18.5 21
q-6 8 -15 15.5t-9 21.5q2 3 3.5 4.5t6.5 3.5q3 1 6.5 0.5t5.5 1.5zM536 281q-1 5 -0.5 10.5t-0.5 10.5q-3 13 -5 25.5t-5 23.5q-4 11 -7 21t-8 20q-26 61 -85 99t-148 37q-6 -1 -12.5 -1.5t-13.5 -0.5q-14 -4 -28 -5.5t-26 -6.5l-27 -11.5t-25 -13.5q-31 -20 -52.5 -49.5
t-36.5 -66.5q-5 -11 -7.5 -23t-5.5 -24q-1 -5 -1.5 -8.5t-1.5 -8.5q-2 -7 -1 -14t-1 -14q-2 -6 -2 -18.5t1 -17.5t1 -8.5v-8.5q2 -8 2.5 -16.5t2.5 -16.5q1 -4 0.5 -6.5t1.5 -6.5q2 -11 4.5 -21t7.5 -20q19 -46 48 -78t74 -52q12 -5 25 -9l27 -8l24 -3h6q3 -1 7 -0.5t8 -0.5
q3 -1 10.5 -1t11.5 1q6 0 12.5 0.5t12.5 1.5l25.5 4t23.5 6q51 17 86 49.5t56 80.5q5 11 8 24t7 26q2 6 2.5 12t2.5 12q1 8 1.5 14.5t1.5 14.5v10q1 5 1 17.5t-2 18.5zM447 224q-4 -14 -5.5 -27.5t-6.5 -25.5q-14 -34 -35 -59t-55 -39q-7 -3 -15 -4.5t-16 -3.5
q-4 -2 -8 -1.5t-8 -0.5q-5 -2 -14.5 -1t-12.5 2q-5 1 -9.5 0.5t-9.5 1.5q-11 3 -20.5 6.5t-17.5 8.5q-5 3 -9 5t-9 5q-20 14 -33.5 35t-23.5 45q-4 8 -5.5 17.5t-3.5 19.5l-2 12q-2 8 -2 18v20q0 5 -0.5 9t0.5 7q0 9 1 13q2 11 3 21.5t4 20.5q11 32 26 56t39 41q5 4 11 8
t13 6q8 4 16.5 6.5t18.5 4.5l18 3h18t17 -2t16 -3.5t15 -4.5q61 -25 89 -90q3 -7 5 -15t5 -16q7 -27 7 -66q0 -8 0.5 -17t-1.5 -16z" />
    <glyph glyph-name="ocircumflex" unicode="&#xf4;" horiz-adv-x="574" 
d="M261 729q16 0 35.5 0.5t30.5 -4.5q9 -4 15.5 -12t11.5 -16l18 -25l18 -25q14 -18 26 -35q2 -3 2.5 -8.5t-1.5 -8.5t-9.5 -5t-16 -3t-17 -0.5t-13.5 2.5q-11 4 -17.5 12t-12.5 17q-6 8 -12 15t-11 15q-5 6 -9.5 12.5t-13.5 8.5t-16 -5.5t-10 -12.5l-12.5 -16.5
l-12.5 -16.5q-5 -8 -11 -15.5t-15 -11.5q-5 -2 -13 -3t-16.5 -0.5t-15.5 2.5t-8 6q-2 2 -1.5 6.5t1.5 6.5q4 8 8.5 14l9.5 13l39 54q5 7 10.5 16t12.5 14q8 6 15 7q2 1 5.5 0.5t5.5 1.5zM536 281q-1 5 -0.5 10.5t-0.5 10.5q-3 13 -5 25.5t-5 23.5q-4 11 -7 21t-8 20
q-26 61 -85 99t-148 37q-6 -1 -12.5 -1.5t-13.5 -0.5q-14 -4 -28 -5.5t-26 -6.5l-27 -11.5t-25 -13.5q-31 -20 -52.5 -49.5t-36.5 -66.5q-5 -11 -7.5 -23t-5.5 -24q-1 -5 -1.5 -8.5t-1.5 -8.5q-2 -7 -1 -14t-1 -14q-2 -6 -2 -18.5t1 -17.5t1 -8.5v-8.5q2 -8 2.5 -16.5
t2.5 -16.5q1 -4 0.5 -6.5t1.5 -6.5q2 -11 4.5 -21t7.5 -20q19 -46 48 -78t74 -52q12 -5 25 -9l27 -8l24 -3h6q3 -1 7 -0.5t8 -0.5q3 -1 10.5 -1t11.5 1q6 0 12.5 0.5t12.5 1.5l25.5 4t23.5 6q51 17 86 49.5t56 80.5q5 11 8 24t7 26q2 6 2.5 12t2.5 12q1 8 1.5 14.5t1.5 14.5
v10q1 5 1 17.5t-2 18.5zM447 224q-4 -14 -5.5 -27.5t-6.5 -25.5q-14 -34 -35 -59t-55 -39q-7 -3 -15 -4.5t-16 -3.5q-4 -2 -8 -1.5t-8 -0.5q-5 -2 -14.5 -1t-12.5 2q-5 1 -9.5 0.5t-9.5 1.5q-11 3 -20.5 6.5t-17.5 8.5q-5 3 -9 5t-9 5q-20 14 -33.5 35t-23.5 45
q-4 8 -5.5 17.5t-3.5 19.5l-2 12q-2 8 -2 18v20q0 5 -0.5 9t0.5 7q0 9 1 13q2 11 3 21.5t4 20.5q11 32 26 56t39 41q5 4 11 8t13 6q8 4 16.5 6.5t18.5 4.5l18 3h18t17 -2t16 -3.5t15 -4.5q61 -25 89 -90q3 -7 5 -15t5 -16q7 -27 7 -66q0 -8 0.5 -17t-1.5 -16z" />
    <glyph glyph-name="odieresis" unicode="&#xf6;" horiz-adv-x="574" 
d="M235 662q1 -5 1 -11v-11q0 -16 -2 -28t-13 -17q-5 -2 -11 -2h-12q-13 0 -24 0.5t-18 5.5q-8 6 -8 21.5v29.5v17t3 15q4 9 16 12q2 1 4.5 0.5t4.5 0.5q17 0 34.5 -0.5t22.5 -13.5q1 -2 1 -5t1 -5v-9zM423 653v-34.5t-13 -23.5q-5 -2 -11.5 -2h-14.5q-14 0 -26 0.5t-18 8.5
q-5 6 -5 17.5v22.5q0 5 -0.5 9.5t0.5 7.5v10q1 3 1 6.5t2 5.5q3 8 14 12q3 1 5.5 1t4.5 1h34t23 -11q4 -5 4 -14v-17zM536 281q2 -6 2 -18.5t-1 -17.5v-10q-1 -8 -1.5 -14.5t-1.5 -14.5q-2 -6 -2.5 -12t-2.5 -12q-4 -13 -7 -26t-8 -24q-21 -48 -56 -80.5t-86 -49.5
q-11 -4 -23.5 -6l-25.5 -4q-6 -1 -12.5 -1.5t-12.5 -0.5q-4 -1 -11.5 -1t-10.5 1q-4 1 -8 0.5t-7 0.5h-6l-24 3l-27 8t-25 9q-45 20 -74 52t-48 78q-5 10 -7.5 20t-4.5 21q-2 4 -1.5 6.5t-0.5 6.5q-2 8 -2.5 16.5t-2.5 16.5v8.5t-1 8.5t-1 17.5t2 18.5q2 7 1 14t1 14
q1 5 1.5 8.5t1.5 8.5q3 12 5.5 24t7.5 23q15 37 36.5 66.5t52.5 49.5q12 8 25 13.5l27 11.5q12 5 26 6.5t28 5.5q7 0 13.5 0.5t12.5 1.5q89 1 148 -37t85 -99q5 -10 8 -20t7 -21q3 -11 5 -23.5t5 -25.5q1 -5 0.5 -10.5t0.5 -10.5zM447 224q2 7 1.5 16t-0.5 17q0 39 -7 66
q-3 8 -5 16t-5 15q-28 65 -89 90q-7 3 -15 4.5t-16 3.5t-17 2h-18l-18 -3q-10 -2 -18.5 -4.5t-16.5 -6.5q-7 -2 -13 -6t-11 -8q-24 -17 -39 -41t-26 -56q-3 -10 -4 -20.5t-3 -21.5q-1 -4 -1 -13q-1 -3 -0.5 -7t0.5 -9v-20t2 -18l2 -12q2 -10 3.5 -19.5t5.5 -17.5
q10 -24 23.5 -45t33.5 -35q5 -3 9 -5t9 -5q8 -5 17.5 -8.5t20.5 -6.5q5 -2 9.5 -1.5t9.5 -0.5q3 -1 12.5 -2t14.5 1q4 1 8 0.5t8 1.5q8 2 16 3.5t15 4.5q34 14 55 39t35 59q5 12 6.5 25.5t5.5 27.5z" />
    <glyph glyph-name="otilde" unicode="&#xf5;" horiz-adv-x="574" 
d="M429 710q16 0 21.5 -9.5t0.5 -24.5q-7 -18 -16.5 -34t-24.5 -25q-14 -9 -37 -14t-45 2q-20 5 -38.5 13t-38.5 15q-6 2 -12.5 2.5t-12.5 2.5q-5 1 -10.5 0.5t-8.5 -1.5q-8 -3 -15.5 -6.5t-12.5 -9.5l-8 -10t-9 -8q-8 -5 -19 -4t-15 9q-2 5 -1 10t2 8q8 20 16 34
q6 10 13 18t17 14q12 7 29 12q8 2 19.5 1.5t19.5 -2.5q6 -2 11 -2t10 -2q25 -9 47 -19q10 -5 24 -9q3 -1 6 -1t7 -1q3 -1 7.5 -1.5t7.5 0.5q9 2 16.5 5t12.5 9q4 5 8 11t9 9q4 4 11 6q2 1 4.5 1t4.5 1zM536 281q-1 5 -0.5 10.5t-0.5 10.5q-3 13 -5 25.5t-5 23.5q-4 11 -7 21
t-8 20q-26 61 -85 99t-148 37q-6 -1 -12.5 -1.5t-13.5 -0.5q-14 -4 -28 -5.5t-26 -6.5l-27 -11.5t-25 -13.5q-31 -20 -52.5 -49.5t-36.5 -66.5q-5 -11 -7.5 -23t-5.5 -24q-1 -5 -1.5 -8.5t-1.5 -8.5q-2 -7 -1 -14t-1 -14q-2 -6 -2 -18.5t1 -17.5t1 -8.5v-8.5q2 -8 2.5 -16.5
t2.5 -16.5q1 -4 0.5 -6.5t1.5 -6.5q2 -11 4.5 -21t7.5 -20q19 -46 48 -78t74 -52q12 -5 25 -9l27 -8l24 -3h6q3 -1 7 -0.5t8 -0.5q3 -1 10.5 -1t11.5 1q6 0 12.5 0.5t12.5 1.5l25.5 4t23.5 6q51 17 86 49.5t56 80.5q5 11 8 24t7 26q2 6 2.5 12t2.5 12q1 8 1.5 14.5t1.5 14.5
v10q1 5 1 17.5t-2 18.5zM447 224q-4 -14 -5.5 -27.5t-6.5 -25.5q-14 -34 -35 -59t-55 -39q-7 -3 -15 -4.5t-16 -3.5q-4 -2 -8 -1.5t-8 -0.5q-5 -2 -14.5 -1t-12.5 2q-5 1 -9.5 0.5t-9.5 1.5q-11 3 -20.5 6.5t-17.5 8.5q-5 3 -9 5t-9 5q-20 14 -33.5 35t-23.5 45
q-4 8 -5.5 17.5t-3.5 19.5l-2 12q-2 8 -2 18v20q0 5 -0.5 9t0.5 7q0 9 1 13q2 11 3 21.5t4 20.5q11 32 26 56t39 41q5 4 11 8t13 6q8 4 16.5 6.5t18.5 4.5l18 3h18t17 -2t16 -3.5t15 -4.5q61 -25 89 -90q3 -7 5 -15t5 -16q7 -27 7 -66q0 -8 0.5 -17t-1.5 -16z" />
    <glyph glyph-name="uacute" unicode="&#xfa;" 
d="M323 729q7 0 17.5 0.5t20 0t17.5 -2.5t11 -6q1 -4 -1 -11q-2 -6 -8 -12l-11 -11t-9.5 -10.5l-9.5 -11.5q-3 -5 -7.5 -8.5t-8.5 -8.5q-2 -2 -2.5 -3t-2.5 -2q-4 -5 -8 -8.5t-8 -8.5q-2 -4 -5.5 -7t-6.5 -6q-4 -5 -8.5 -10t-9.5 -8q-7 -4 -22.5 -6.5t-24.5 2.5
q-3 2 -5.5 6.5t-0.5 10.5q2 8 6 14.5t9 12.5l17 29l18 29l8 14.5t11 12.5t14 8q3 0 5.5 0.5t4.5 0.5zM92 516h29t21 -8q5 -8 5.5 -20t0.5 -24v-95v-151v-45.5t5 -40.5q16 -45 60 -63q22 -9 53 -6.5t50 10.5q33 14 52.5 35.5t30.5 56.5q3 8 4 16t3 17q1 5 0.5 9t1.5 9v21
q2 8 1 18.5t-1 19.5v78v106q0 12 -0.5 25.5t4.5 21.5q4 5 9.5 6.5t13.5 3.5h15q12 0 21.5 -1t14.5 -9q5 -5 5 -14.5v-19.5v-68v-269v-90q0 -12 -0.5 -22.5t-7.5 -15.5q-4 -3 -12 -4.5t-17.5 -2t-18 0.5t-12.5 4q-5 4 -9 13q-1 4 -1.5 11t-1.5 13.5t-4 10.5t-9 3
q-8 -2 -16 -11.5t-15 -14.5q-22 -16 -50 -28q-11 -5 -22.5 -6.5t-23.5 -4.5q-5 -1 -10.5 0t-10.5 -1q-10 -2 -18 0h-10q-5 2 -11.5 2t-11.5 1q-4 2 -7.5 1.5t-8.5 1.5l-15.5 4t-15.5 6q-26 11 -43.5 29.5t-28.5 44.5q-4 9 -6 18.5l-4 19.5q-2 6 -1.5 11.5t-1.5 12.5
q-1 2 -1 5.5t-1 6.5v10q-1 4 -0.5 9.5t0.5 10.5v40v184v64v18t4 15q4 7 15 10q2 1 4 0.5t4 0.5z" />
    <glyph glyph-name="ugrave" unicode="&#xf9;" 
d="M188 730q14 0 31 0.5t28 -4.5q8 -3 12.5 -9.5t8.5 -13.5q9 -14 17 -28t17 -28l10.5 -17t10.5 -19q1 -3 1 -8t-2 -7q-3 -5 -10.5 -6.5t-15.5 -0.5t-15 3t-11 4q-5 4 -9.5 8.5t-8.5 9.5l-6 6q-2 3 -4.5 5.5t-4.5 5.5q-3 2 -5.5 5t-4.5 5q-8 11 -18.5 21t-18.5 21
q-6 8 -15 15.5t-9 21.5q2 3 3.5 4.5t6.5 3.5q3 1 6.5 0.5t5.5 1.5zM92 516h29t21 -8q5 -8 5.5 -20t0.5 -24v-95v-151v-45.5t5 -40.5q16 -45 60 -63q22 -9 53 -6.5t50 10.5q33 14 52.5 35.5t30.5 56.5q3 8 4 16t3 17q1 5 0.5 9t1.5 9v21q2 8 1 18.5t-1 19.5v78v106
q0 12 -0.5 25.5t4.5 21.5q4 5 9.5 6.5t13.5 3.5h15q12 0 21.5 -1t14.5 -9q5 -5 5 -14.5v-19.5v-68v-269v-90q0 -12 -0.5 -22.5t-7.5 -15.5q-4 -3 -12 -4.5t-17.5 -2t-18 0.5t-12.5 4q-5 4 -9 13q-1 4 -1.5 11t-1.5 13.5t-4 10.5t-9 3q-8 -2 -16 -11.5t-15 -14.5
q-22 -16 -50 -28q-11 -5 -22.5 -6.5t-23.5 -4.5q-5 -1 -10.5 0t-10.5 -1q-10 -2 -18 0h-10q-5 2 -11.5 2t-11.5 1q-4 2 -7.5 1.5t-8.5 1.5l-15.5 4t-15.5 6q-26 11 -43.5 29.5t-28.5 44.5q-4 9 -6 18.5l-4 19.5q-2 6 -1.5 11.5t-1.5 12.5q-1 2 -1 5.5t-1 6.5v10
q-1 4 -0.5 9.5t0.5 10.5v40v184v64v18t4 15q4 7 15 10q2 1 4 0.5t4 0.5z" />
    <glyph glyph-name="ucircumflex" unicode="&#xfb;" 
d="M252 729q16 0 35.5 0.5t30.5 -4.5q9 -4 15.5 -12t11.5 -16l18 -25l18 -25q14 -18 26 -35q2 -3 2.5 -8.5t-1.5 -8.5t-9.5 -5t-16 -3t-17 -0.5t-13.5 2.5q-11 4 -17.5 12t-12.5 17q-6 8 -12 15t-11 15q-5 6 -9.5 12.5t-13.5 8.5t-16 -5.5t-10 -12.5l-12.5 -16.5
l-12.5 -16.5q-5 -8 -11 -15.5t-15 -11.5q-5 -2 -13 -3t-16.5 -0.5t-15.5 2.5t-8 6q-2 2 -1.5 6.5t1.5 6.5q4 8 8.5 14l9.5 13l39 54q5 7 10.5 16t12.5 14q8 6 15 7q2 1 5.5 0.5t5.5 1.5zM92 516h29t21 -8q5 -8 5.5 -20t0.5 -24v-95v-151v-45.5t5 -40.5q16 -45 60 -63
q22 -9 53 -6.5t50 10.5q33 14 52.5 35.5t30.5 56.5q3 8 4 16t3 17q1 5 0.5 9t1.5 9v21q2 8 1 18.5t-1 19.5v78v106q0 12 -0.5 25.5t4.5 21.5q4 5 9.5 6.5t13.5 3.5h15q12 0 21.5 -1t14.5 -9q5 -5 5 -14.5v-19.5v-68v-269v-90q0 -12 -0.5 -22.5t-7.5 -15.5q-4 -3 -12 -4.5
t-17.5 -2t-18 0.5t-12.5 4q-5 4 -9 13q-1 4 -1.5 11t-1.5 13.5t-4 10.5t-9 3q-8 -2 -16 -11.5t-15 -14.5q-22 -16 -50 -28q-11 -5 -22.5 -6.5t-23.5 -4.5q-5 -1 -10.5 0t-10.5 -1q-10 -2 -18 0h-10q-5 2 -11.5 2t-11.5 1q-4 2 -7.5 1.5t-8.5 1.5l-15.5 4t-15.5 6
q-26 11 -43.5 29.5t-28.5 44.5q-4 9 -6 18.5l-4 19.5q-2 6 -1.5 11.5t-1.5 12.5q-1 2 -1 5.5t-1 6.5v10q-1 4 -0.5 9.5t0.5 10.5v40v184v64v18t4 15q4 7 15 10q2 1 4 0.5t4 0.5z" />
    <glyph glyph-name="udieresis" unicode="&#xfc;" 
d="M227 662q1 -5 1 -11v-11q0 -16 -2 -28t-13 -17q-5 -2 -11 -2h-12q-13 0 -24 0.5t-18 5.5q-8 6 -8 21.5v29.5v17t3 15q4 9 16 12q2 1 4.5 0.5t4.5 0.5q17 0 34.5 -0.5t22.5 -13.5q1 -2 1 -5t1 -5v-9zM415 653v-34.5t-13 -23.5q-5 -2 -11.5 -2h-14.5q-14 0 -26 0.5t-18 8.5
q-5 6 -5 17.5v22.5q0 5 -0.5 9.5t0.5 7.5v10q1 3 1 6.5t2 5.5q3 8 14 12q3 1 5.5 1t4.5 1h34t23 -11q4 -5 4 -14v-17zM92 516h29t21 -8q5 -8 5.5 -20t0.5 -24v-95v-151v-45.5t5 -40.5q16 -45 60 -63q22 -9 53 -6.5t50 10.5q33 14 52.5 35.5t30.5 56.5q3 8 4 16t3 17
q1 5 0.5 9t1.5 9v21q2 8 1 18.5t-1 19.5v78v106q0 12 -0.5 25.5t4.5 21.5q4 5 9.5 6.5t13.5 3.5h15q12 0 21.5 -1t14.5 -9q5 -5 5 -14.5v-19.5v-68v-269v-90q0 -12 -0.5 -22.5t-7.5 -15.5q-4 -3 -12 -4.5t-17.5 -2t-18 0.5t-12.5 4q-5 4 -9 13q-1 4 -1.5 11t-1.5 13.5
t-4 10.5t-9 3q-8 -2 -16 -11.5t-15 -14.5q-22 -16 -50 -28q-11 -5 -22.5 -6.5t-23.5 -4.5q-5 -1 -10.5 0t-10.5 -1q-10 -2 -18 0h-10q-5 2 -11.5 2t-11.5 1q-4 2 -7.5 1.5t-8.5 1.5l-15.5 4t-15.5 6q-26 11 -43.5 29.5t-28.5 44.5q-4 9 -6 18.5l-4 19.5q-2 6 -1.5 11.5
t-1.5 12.5q-1 2 -1 5.5t-1 6.5v10q-1 4 -0.5 9.5t0.5 10.5v40v184v64v18t4 15q4 7 15 10q2 1 4 0.5t4 0.5z" />
    <glyph glyph-name="dagger" unicode="&#x2020;" 
d="M263 713q14 0 28 -0.5t20 -9.5q5 -7 5 -19v-24v-91v-23.5t5 -19.5q6 -8 20 -9t29 -1h92h23.5t19.5 -5q6 -5 7.5 -14.5t1.5 -20.5q0 -6 -1 -12t-3 -10q-7 -11 -22.5 -11h-32.5h-87q-12 0 -23.5 -0.5t-18.5 -5.5q-5 -4 -6.5 -10l-3.5 -14v-427v-88v-22.5t-5 -18.5
q-4 -5 -9.5 -6.5l-12.5 -3.5h-12q-13 0 -21.5 1.5t-13.5 9.5q-5 7 -4.5 17.5t0.5 20.5v83v299v94q0 8 0.5 19.5t-1.5 19.5v6q-2 8 -4 13t-8 9q-7 4 -18 4h-22h-85q-17 0 -32.5 0.5t-20.5 11.5q-3 7 -3 19t1 22t8 15t18.5 5h22.5h88q15 0 29.5 0.5t20.5 9.5q5 8 5.5 20.5
t0.5 25.5v86q0 10 -0.5 21.5t2.5 19.5q4 9 14 12q2 1 4.5 1t4.5 1z" />
    <glyph glyph-name="degree" unicode="&#xb0;" horiz-adv-x="400" 
d="M332 619q11 -24 10.5 -54.5t-10.5 -54.5q-24 -55 -82 -78q-7 -3 -13.5 -4t-14.5 -3q-3 -1 -6.5 -1t-6.5 -1q-4 -1 -10 -0.5t-9 1.5q-5 1 -9.5 0.5t-9.5 1.5q-16 3 -29 9q-53 23 -74 75q-2 5 -3 9t-3 9q-3 11 -5 28.5t2 31.5q2 8 3 15t4 13q24 60 80 83q7 3 14 4.5t15 3.5
q4 1 8 1t8 1q56 1 90 -25.5t51 -64.5zM293 551q3 14 0 28.5t-7 23.5q-19 45 -69 56q-6 2 -13 1.5t-13 -0.5q-3 0 -5.5 -0.5t-5.5 -0.5q-5 -2 -9 -3t-8 -3q-35 -15 -51 -53q-2 -5 -3 -10.5l-2 -10.5q-2 -9 -1 -19.5t3 -18.5q14 -45 55 -62q6 -2 17.5 -5.5t20.5 -1.5h8
q6 2 12.5 3t12.5 3q36 16 51 50q4 9 7 23z" />
    <glyph glyph-name="cent" unicode="&#xa2;" 
d="M505 184q5 -3 6 -11t-1 -16q-3 -13 -7 -24.5t-9 -22.5q-15 -34 -41 -61t-59 -42q-11 -5 -22.5 -7.5t-23.5 -6.5q-9 -2 -17.5 -3t-13.5 -8q-6 -8 -6 -22.5v-29.5t-3 -26.5t-14 -14.5q-8 -2 -12.5 3.5t-6.5 10.5q-1 2 -1 8q-1 3 -0.5 7t-0.5 7q-2 11 -0.5 24t-1.5 24
q-4 13 -14 17q-7 2 -14 2.5t-15 2.5t-17 4.5t-17 5.5q-13 5 -25 11t-23 14l-12 10l-12 10q-2 1 -3.5 3t-3.5 4l-8 8q-4 5 -7.5 10.5l-7.5 11.5q-18 26 -30 62q-3 9 -5 18l-4 18q-2 8 -2 16t-2 16q0 3 -0.5 6t-0.5 7q-1 5 -1.5 17.5t1.5 18.5v10q2 9 2 18t2 18t3 18t4 18
q8 23 17 44.5t22 39.5q17 25 41 45t53 33q10 5 20.5 7.5t21.5 5.5q8 2 15.5 3.5t12.5 5.5q8 5 9.5 15t1.5 23q0 4 -0.5 8t0.5 7q0 5 0.5 9t0.5 9q2 10 8 15q2 1 3.5 1t3.5 2q15 0 18.5 -11.5t3.5 -26.5t0.5 -29.5t9.5 -20.5q6 -5 14.5 -5.5t17.5 -2.5q11 -3 21.5 -5t20.5 -6
q34 -14 56.5 -34.5t39.5 -52.5q5 -10 8.5 -20t6.5 -22q2 -5 2.5 -11t-1.5 -11q-5 -9 -17 -10t-26 -1q-8 0 -15 0.5t-12 3.5q-11 5 -15.5 18t-11.5 24q-9 15 -21 26.5t-29 18.5q-10 5 -24 8t-21 -9q-2 -2 -2.5 -5.5t-1.5 -7.5v-7q-2 -5 -1.5 -10.5t0.5 -10.5v-286v-10t1 -9
q1 -5 0.5 -8.5t1.5 -8.5q3 -8 12 -10q9 -3 20.5 1.5t16.5 7.5q4 3 8 5t8 5q14 10 24.5 24.5t17.5 31.5q4 8 7 20.5t10 17.5q6 4 12 5q4 1 12.5 1.5t17 0t16 -1.5t10.5 -3zM273 378q0 8 0.5 18.5t0 20.5t-2.5 18t-7 11q-4 3 -15 3q-2 -2 -6.5 -1.5t-7.5 -1.5q-17 -7 -28 -15
q-22 -15 -36 -37t-23 -49q-4 -10 -5.5 -20t-3.5 -21l-3 -30v-13q-1 -5 -1 -13.5t2 -13.5v-7q2 -8 2 -16.5t2 -16.5q9 -32 21 -57.5t35 -42.5l3.5 -3.5l3.5 -3.5q8 -5 15.5 -8.5l16.5 -7.5q4 -1 9 -3t10 0q10 2 14 8q3 5 3.5 13t0.5 16v273z" />
    <glyph glyph-name="sterling" unicode="&#xa3;" 
d="M278 729q92 2 146.5 -33.5t79.5 -101.5q5 -12 7.5 -25t6.5 -27q1 -7 1.5 -14t1.5 -14q2 -11 -0.5 -21.5t-7.5 -14.5q-5 -2 -15 -4h-11q-7 -2 -13 0h-11q-8 2 -13 4t-8 7q-4 6 -4 13.5t-2 15.5q-3 13 -4.5 25t-6.5 23q-13 30 -30 51t-47 33q-5 2 -10.5 3t-11.5 3
q-8 2 -22 3.5t-23 -0.5h-6q-8 -2 -15 -3t-14 -3q-35 -11 -58 -32.5t-34 -56.5q-2 -8 -4.5 -22.5t0.5 -25.5v-7q1 -6 1.5 -12.5t1.5 -12.5l8 -25t9 -23l7 -16t8.5 -17.5t10.5 -15t12 -9.5q8 -3 18 -3h21h36.5t35.5 -1q14 0 23.5 -1.5t13.5 -12.5q2 -5 1 -11q-2 -10 -8 -13
q-3 -2 -6.5 -2.5t-6.5 -1.5h-7q-4 -2 -9.5 -1.5t-10.5 0.5h-38q-10 0 -18.5 -0.5t-13.5 -4.5q-5 -3 -5.5 -10.5t1.5 -14.5q2 -11 4.5 -22t2.5 -25v-6.5t-1 -6.5t-0.5 -6t-0.5 -7q-2 -12 -4.5 -22.5t-7.5 -21.5q-6 -15 -15 -27.5l-18 -24.5q-5 -7 -10 -12.5l-10 -11.5
q-2 -4 -5 -7.5t-2 -9.5q6 -4 13.5 -3.5t15.5 2.5q9 2 19.5 2.5t21.5 0.5h20q8 -2 14.5 -2.5t13.5 -1.5q19 -5 36.5 -9t34.5 -9l14.5 -4l15.5 -4q7 0 11 -1q3 -1 8.5 -1.5t10.5 0.5l18 3q10 3 19 6t17 7q4 2 12 7t16 3q11 -2 20.5 -16t14.5 -24q3 -8 0 -15t-8 -11
q-18 -12 -45 -22q-4 -2 -7.5 -2t-7.5 -1q-7 -2 -14 -3t-14 -3h-8.5t-8.5 -1q-7 -2 -20 -1.5t-20 2.5h-8q-5 2 -11 2.5t-11 1.5l-41.5 11.5t-40.5 11.5q-11 4 -22.5 5.5t-22.5 3.5q-5 2 -9 1.5t-8 0.5t-13 0.5t-12 -1.5q-5 -2 -8.5 -1.5t-8.5 -0.5l-20.5 -5.5t-17.5 -7.5
q-8 -4 -18 -7.5t-20 2.5q-7 5 -16 17.5t-12 20.5q-4 11 1 19q6 10 16.5 18t18.5 16q16 17 28.5 36.5t22.5 42.5q2 5 3 10.5t3 12.5q2 9 4 26.5t-1 29.5l-4.5 21.5t-6 21.5t-8.5 18t-14 11q-8 3 -19 3h-21.5t-19 2.5t-11.5 10.5q-1 2 -1 3t-1 3q0 17 13 22q10 5 18.5 5
t11.5 11q1 4 0 7t-2 5q-2 7 -5 13l-6 12q-5 13 -8.5 26.5t-7.5 27.5q-1 7 -1.5 13.5t-2.5 13.5v15q-2 9 0 18v13q2 9 3.5 17.5t3.5 16.5t4 14t5 13q17 38 47.5 63t69.5 42q13 5 27 7t28 6q8 1 15 1.5t14 0.5z" />
    <glyph glyph-name="section" unicode="&#xa7;" 
d="M513 250q2 -8 2 -21t-2 -19t-2 -11t-2 -10q-11 -30 -25 -51q-7 -9 -16.5 -18t-18.5 -16q-6 -5 -13.5 -9.5t-9.5 -12.5q-2 -9 5 -17t10 -13q17 -24 26 -60q0 -2 0.5 -5t0.5 -5q3 -15 1 -33.5t-6 -29.5q-14 -42 -41.5 -66.5t-69.5 -38.5q-9 -3 -19 -4.5t-21 -3.5
q-5 -2 -10 -1t-10 -1q-4 -1 -9.5 -0.5t-8.5 1.5h-15q-7 2 -14.5 2.5t-14.5 2.5l-20.5 5.5t-18.5 6.5q-29 13 -49.5 33.5t-35.5 48.5q-6 12 -10 26l-8 29q-2 7 -0.5 14.5t4.5 11.5q4 3 13.5 5t20 2t20 -1.5t13.5 -4.5q8 -6 10 -17.5t6 -20.5q6 -14 14 -26t19 -20
q10 -8 20.5 -12.5t23.5 -8.5q9 -2 23 -2.5t24 1.5q5 1 8.5 1t8.5 1q17 6 30.5 14.5t22.5 22.5q6 9 11.5 24t0.5 32q-9 35 -32.5 54.5t-49.5 36.5q-36 23 -74.5 42.5t-73.5 42.5l-37 25q-3 2 -6 5.5t-6 5.5l-8 6t-7 7q-6 8 -13 16t-12 16q-11 18 -19 43q-2 4 -2 7.5t-2 7.5
q-2 8 -3.5 20.5t0.5 21.5v6q2 5 2 10.5t2 10.5q5 13 10 24.5t13 22.5q14 21 35 35q8 5 17 10t13 14q3 8 -2 16l-8 13q-11 19 -17 41q-2 6 -2 12.5t-2 12.5q-1 4 -1 10t1 9t1 11q2 8 3.5 15t3.5 14q14 38 41 62t66 38q9 4 18.5 5.5t20.5 3.5q5 1 11 1.5t12 0.5q68 2 110 -24
t62 -74q5 -11 8 -23l6 -25q2 -7 1 -15t-4 -13q-4 -5 -10 -7q-5 -2 -13.5 -2.5t-17 0t-16.5 2t-11 3.5q-8 5 -10 16t-7 22q-5 13 -12.5 25t-18.5 20q-15 12 -37 18q-8 3 -21.5 3.5t-22.5 -1.5q-5 -2 -9 -2t-9 -2q-36 -11 -51 -43q-3 -8 -6 -18q0 -7 -1 -10q-1 -2 -1 -7t1 -8
q2 -7 3 -13t3 -12q12 -28 37.5 -45.5t51.5 -33.5q14 -8 29 -15.5t29 -16.5q5 -2 9 -4t9 -5q10 -6 20.5 -11.5t20.5 -11.5q8 -5 15.5 -11t15.5 -11l21.5 -16t18.5 -19q2 -2 3 -2.5t3 -2.5q11 -14 20 -28t15 -33q2 -6 2.5 -12t2.5 -12zM431 199q2 8 2 19t-3 19q-2 7 -4.5 13
t-5.5 11q-13 19 -30 32.5t-37 25.5q-11 8 -23 15t-24 15q-11 7 -21.5 12.5t-21.5 12.5q-11 6 -21 12.5l-20 12.5l-17 11t-22 5q-1 -1 -2 -0.5t-3 -0.5q-7 -2 -12 -5q-18 -10 -31 -27q-8 -11 -15 -28q-7 -23 -1.5 -44t15.5 -35q20 -28 49 -45l58 -35q8 -5 16 -8t16 -8
l25.5 -15t24.5 -15q8 -5 16.5 -11t19.5 -8t21 3.5t15 9.5q27 21 36 56z" />
    <glyph glyph-name="bullet" unicode="&#x2022;" horiz-adv-x="500" 
d="M239 534q68 1 111.5 -30t63.5 -77q5 -10 7.5 -20l5.5 -21q1 -5 0.5 -8.5t0.5 -8.5q2 -6 1.5 -15t-1.5 -15q-1 -3 -1 -6.5t-1 -7.5q-3 -11 -5.5 -21.5t-7.5 -20.5q-14 -33 -40 -56t-60 -37q-8 -4 -17.5 -6l-18.5 -4q-4 -1 -7.5 -0.5t-6.5 -0.5q-4 -1 -12 -1t-11 1
q-6 2 -11 1.5t-10 0.5l-21 6t-20 8q-29 13 -52 36t-36 52q-3 6 -5 12t-4 13q-3 11 -5 22t-2 25q0 10 1 14q0 3 0.5 6.5t0.5 7.5q2 9 3.5 18.5t5.5 17.5q29 73 98 102q9 4 18.5 6t20.5 5q3 1 8.5 0.5t8.5 1.5z" />
    <glyph glyph-name="paragraph" unicode="&#xb6;" horiz-adv-x="600" 
d="M263 712h181q17 0 37 0.5t27 -9.5q5 -7 5.5 -19t0.5 -24v-95v-373v-259v-46q0 -8 -0.5 -15.5t-2.5 -12.5q-3 -8 -13 -11q-11 -4 -26 -2t-20 10q-5 7 -4.5 18.5t0.5 22.5v91v493v125q0 17 -1.5 31t-13.5 19q-5 2 -13 2.5t-16 0.5q-9 0 -20 0.5t-22 0t-19.5 -2.5t-12.5 -7
q-6 -8 -6 -23v-29v-114v-445v-130v-30t-6 -24q-3 -5 -13.5 -8t-19.5 -1q-8 2 -13.5 3.5t-9.5 6.5q-4 6 -4.5 15.5t-0.5 19.5v70v229v73q0 8 1 17.5t-1 17.5q-3 15 -12 20q-4 3 -9 3.5t-11 2.5q-9 2 -18.5 3t-17.5 4q-16 5 -30.5 11.5t-27.5 14.5q-5 3 -9 6.5l-9 7.5
l-8.5 6.5t-7.5 8.5q-5 5 -9.5 10.5t-8.5 11.5q-8 11 -13 23t-10 26q-3 8 -3.5 16t-2.5 16q-1 5 -1 9v9q-1 3 -0.5 8.5t1.5 9.5v6q1 5 1 11t2 11q1 3 1 5.5t1 6.5q2 8 4.5 16.5t6.5 16.5q12 29 32 49t46 36q16 10 35 15t40 10q8 2 17 1.5t17 1.5q2 1 5 0t5 1z" />
    <glyph glyph-name="germandbls" unicode="&#xdf;" 
d="M257 728q42 2 75 -11q42 -14 73 -36.5t48 -60.5q4 -8 6.5 -16.5t4.5 -17.5q2 -5 1.5 -9t0.5 -9q2 -5 2 -13t-1 -13q0 -3 -0.5 -6.5t-0.5 -7.5q-2 -9 -3 -18t-3 -17q-4 -11 -8.5 -21.5t-10.5 -18.5q-3 -4 -9 -10q-2 -3 -5 -6.5t-6 -5.5q-5 -5 -16.5 -13t-13.5 -14v-6
q3 -5 4 -6q6 -5 14 -8.5t15 -8.5q5 -3 10 -7l10 -8q2 -2 4.5 -5t4.5 -5q3 -1 4 -4q4 -4 7 -8t6 -9q8 -13 13.5 -27.5t10.5 -30.5q2 -9 2.5 -18t2.5 -19v-10q2 -8 0 -14t-0.5 -11.5t-0.5 -10.5q-2 -10 -3.5 -19.5t-3.5 -17.5q-3 -8 -5 -15.5t-5 -15.5q-27 -63 -83 -99
q-11 -6 -21.5 -10l-22.5 -9q-11 -5 -24 -7t-26 -5q-7 -1 -13.5 -1t-13.5 -1q-3 -1 -7 -0.5t-6 0.5h-8q-6 2 -11 3t-9 4q-5 3 -7 12t-2 19t2.5 18.5t7.5 11.5q5 4 18 4h11q3 1 7 0.5t8 0.5q7 2 14 3t14 3q33 11 55.5 29.5t35.5 49.5q2 5 3 10t3 10q2 10 3.5 20.5t1.5 22.5v16
q-1 4 -1 8t-1 8q-2 8 -3 15t-3 14q-9 27 -25 45t-42 29q-9 4 -19 5.5t-21 4.5q-5 1 -10.5 1t-10.5 1q-8 0 -12 1q-14 2 -22 3t-12 15q-2 3 -1.5 6.5t0.5 8.5q0 8 0.5 13.5t3.5 10.5q7 10 21.5 10t27.5 3l26 7.5t23 10.5q28 17 41 50q2 5 2.5 10t2.5 10t3 16t-1 18
q-1 5 -1 9.5t-1 9.5q-5 16 -12 30q-10 16 -23.5 28t-31.5 20q-8 4 -16.5 5t-18.5 3q-5 2 -15 1t-15 -2q-5 -2 -9 -1.5t-9 -1.5q-15 -5 -28.5 -12.5t-21.5 -18.5q-16 -22 -24 -57q-2 -5 -1.5 -10t-1.5 -11q-2 -7 -1.5 -15.5t0.5 -17.5v-55v-278v-117v-27.5t-6 -22.5
q-5 -8 -16 -8.5t-24 -0.5h-13t-11 2q-13 6 -13 23.5v36.5v166v220v71q0 9 -0.5 17.5t1.5 16.5v9q2 8 3.5 16.5t3.5 16.5q11 35 32 63l9 11.5t10 10.5q6 5 12 9.5l13 9.5q11 7 24.5 12l27.5 10q9 3 18 4t19 3q4 1 10 0t9 1z" />
    <glyph glyph-name="registered" unicode="&#xae;" horiz-adv-x="800" 
d="M774 371q1 -4 1 -10.5t-1 -11.5v-12q-1 -5 -1 -11t-1 -11l-6 -36l-10 -37t-13 -35q-32 -73 -90 -125t-138 -78q-12 -5 -24.5 -7t-25.5 -5q-5 -2 -10 -2t-10 -1l-33 -3q-3 -1 -12 -0.5t-12 1.5h-11q-4 1 -8.5 1t-8.5 1q-4 0 -7 0.5t-6 0.5q-8 2 -17 3t-17 3
q-11 3 -21.5 5.5t-21.5 7.5l-14.5 6l-14.5 6q-66 29 -113 78t-76 115q-5 13 -8 25t-8 26q-2 8 -3.5 16.5t-3.5 16.5q-2 5 -1.5 10.5t-1.5 10.5q0 5 -0.5 10t-0.5 10v9q-2 6 -2 17.5t2 17.5v7q1 7 1.5 14t1.5 15q5 20 9 39t12 36q32 78 86 130t132 84q12 5 25 8t26 7
q6 2 13 2.5t13 2.5q8 1 17 1.5t17 1.5q2 1 5 0t5 0q46 1 83.5 -6t69.5 -21q11 -5 21 -9t19 -10l8 -4l8 -4l19.5 -13.5t18.5 -13.5q5 -4 9.5 -8t9.5 -8l3.5 -3.5l3.5 -3.5q15 -12 27 -29q5 -7 10 -12.5t10 -12.5q12 -17 22 -35t18 -38q6 -14 9.5 -29t8.5 -31q2 -8 3 -15.5
l2 -15.5q1 -7 1.5 -13t1.5 -13v-12zM705 319q2 10 2.5 21.5t0.5 23.5q0 34 -6 63t-16 53q-4 9 -6.5 17.5t-7.5 16.5l-16 25.5t-17 23.5q-5 7 -11 13.5t-12 11.5q-44 45 -105 70q-12 5 -24.5 8t-26.5 6q-6 2 -12.5 2.5t-12.5 1.5q-2 0 -5 0.5t-5 0.5q-9 2 -20.5 1.5
t-21.5 -0.5q-2 -1 -4.5 -0.5t-4.5 -0.5l-27 -3q-17 -5 -32.5 -8t-30.5 -9q-64 -27 -105.5 -71t-68.5 -109q-6 -15 -8.5 -31.5t-7.5 -33.5q-1 -7 -1.5 -13t-1.5 -13v-8q-1 -5 -1 -17.5t1 -17.5t1 -10v-10q3 -11 4 -22.5t4 -22.5q1 -3 1.5 -6.5t1.5 -6.5q4 -11 7 -21.5
t8 -20.5q23 -54 62 -94t93 -63q8 -4 17 -7.5t18 -6.5l16.5 -4l16.5 -4q8 -1 14.5 -1.5t13.5 -2.5h6q5 -1 15.5 -1.5t15.5 0.5h13l24 3q16 4 30.5 6t28.5 8l25 10t24 12q45 28 77.5 64.5t54.5 87.5q8 17 12 36t9 39q0 3 0.5 6.5t0.5 7.5zM521 352q-6 -3 -13.5 -5.5
t-14.5 -5.5t-13 -7.5t-7 -11.5q0 -3 1 -6t2 -5q4 -8 8 -13.5t8 -12.5l60 -93q5 -7 9.5 -14t7.5 -15q4 -11 -3 -18q-4 -2 -7 -2t-8 -1q-8 -2 -18 0q-5 2 -9.5 2t-8.5 3q-9 5 -14.5 15t-11.5 18l-63 99q-8 12 -15 24.5t-19 20.5q-6 4 -14.5 4.5t-17.5 0.5h-9q-8 -2 -14 -3
t-10 -6q-5 -8 -5.5 -20t-0.5 -25v-81q0 -11 0.5 -21.5t-3.5 -18.5q-2 -5 -9 -8.5t-15.5 -4t-17 0.5t-13.5 5q-4 3 -5 8t-3 10v6q-1 5 -0.5 12.5t0.5 14.5v336v17t4 14q4 7 13 10q2 0 4 0.5t4 0.5h106q47 0 82 -3t62 -23q13 -7 20 -16q15 -21 22 -49l3 -18v-9
q2 -9 -0.5 -23.5t-4.5 -21.5q-7 -22 -19.5 -36t-29.5 -25zM381 382q17 0 34.5 0.5t32.5 3.5t27 8.5t19 15.5q9 12 12 27q4 12 2 25.5t-6 21.5q-8 17 -23.5 25t-36 11t-45 3h-48.5q-2 0 -4.5 -0.5t-4.5 -0.5q-10 -3 -14 -10q-2 -3 -2.5 -7t-1.5 -8v-11q-2 -5 -1.5 -12
t0.5 -13q0 -16 -0.5 -37.5t6.5 -30.5q7 -10 22.5 -10.5t31.5 -0.5z" />
    <glyph glyph-name="copyright" unicode="&#xa9;" horiz-adv-x="800" 
d="M775 370q1 -4 1 -10.5t-1 -11.5v-12q-1 -5 -1 -11t-1 -11l-6 -36l-10 -37t-13 -35q-32 -73 -90 -125t-138 -78q-12 -5 -24.5 -7t-25.5 -5q-5 -2 -10 -2t-10 -1l-33 -3q-3 -1 -12 -0.5t-12 1.5h-11q-4 1 -8.5 1t-8.5 1q-4 0 -7 0.5t-6 0.5q-8 2 -17 3t-17 3
q-11 3 -21.5 5.5t-21.5 7.5l-14.5 6l-14.5 6q-66 29 -113 78t-76 115q-5 13 -8 25t-8 26q-2 8 -3.5 16.5t-3.5 16.5q-2 5 -1.5 10.5t-1.5 10.5q0 5 -0.5 10t-0.5 10v9q-2 6 -2 17.5t2 17.5v7q1 7 1.5 14t1.5 15q5 20 9 39t12 36q32 78 86 130t132 84q12 5 25 8t26 7
q6 2 13 2.5t13 2.5q8 1 17 1.5t17 1.5q2 1 5 0t5 0q46 1 83.5 -6t69.5 -21q11 -5 21 -9t19 -10l8 -4l8 -4l19.5 -13.5t18.5 -13.5q5 -4 9.5 -8t9.5 -8l3.5 -3.5l3.5 -3.5q15 -12 27 -29q5 -7 10 -12.5t10 -12.5q12 -17 22 -35t18 -38q6 -14 9.5 -29t8.5 -31q2 -8 3 -15.5
l2 -15.5q1 -7 1.5 -13t1.5 -13v-12zM706 318q2 10 2.5 21.5t0.5 23.5q0 34 -6 63t-16 53q-4 9 -6.5 17.5t-7.5 16.5l-16 25.5t-17 23.5q-5 7 -11 13.5t-12 11.5q-44 45 -105 70q-12 5 -24.5 8t-26.5 6q-6 2 -12.5 2.5t-12.5 1.5q-2 0 -5 0.5t-5 0.5q-9 2 -20.5 1.5
t-21.5 -0.5q-2 -1 -4.5 -0.5t-4.5 -0.5l-27 -3q-17 -5 -32.5 -8t-30.5 -9q-64 -27 -105.5 -71t-68.5 -109q-6 -15 -8.5 -31.5t-7.5 -33.5q-1 -7 -1.5 -13t-1.5 -13v-8q-1 -5 -1 -17.5t1 -17.5t1 -10v-10q3 -11 4 -22.5t4 -22.5q1 -3 1.5 -6.5t1.5 -6.5q4 -11 7 -21.5
t8 -20.5q23 -54 62 -94t93 -63q8 -4 17 -7.5t18 -6.5l16.5 -4l16.5 -4q8 -1 14.5 -1.5t13.5 -2.5h6q5 -1 15.5 -1.5t15.5 0.5h13l24 3q16 4 30.5 6t28.5 8l25 10t24 12q45 28 77.5 64.5t54.5 87.5q8 17 12 36t9 39q0 3 0.5 6.5t0.5 7.5zM261 396q0 -8 -1 -12
q-3 -14 -1.5 -33t4.5 -31q2 -9 3.5 -16.5t4.5 -15.5q13 -32 32.5 -55t50.5 -37q7 -3 15 -5.5t16 -4.5q3 -1 6.5 -1t7.5 -1t10 -1.5t11 1.5q4 1 7.5 0t7.5 1q7 2 13.5 3t11.5 3q36 14 55 42q5 6 8 13t7 14l4 10t6 7q6 5 20.5 7t23.5 -3q11 -7 6 -23q-7 -21 -20 -42
q-18 -28 -41.5 -47.5t-58.5 -30.5q-8 -3 -16.5 -4t-16.5 -3q-5 -2 -9.5 -1t-9.5 -1q-5 -1 -15 0t-14 2h-5q-7 1 -13 2t-13 2q-11 4 -22 7t-21 8q-39 17 -65 46.5t-43 70.5q-4 9 -5.5 18t-4.5 20q-2 8 -2 16.5t-2 16.5v10q-2 9 0 19v10v5.5t1 5.5q1 5 1 16q4 13 6 25.5
t7 23.5q19 45 48.5 74t75.5 46q11 4 23.5 5.5t25.5 4.5q4 1 12.5 0.5t10.5 1.5q60 1 100.5 -20.5t64.5 -57.5q11 -16 20 -41q1 -4 2 -9.5t-1 -10.5q-3 -6 -10.5 -9t-16 -2.5t-16.5 3t-11 7.5q-5 7 -8.5 15t-8.5 16q-18 29 -49 43q-8 3 -16.5 5.5t-17.5 4.5q-13 3 -32 2
t-30 -5q-5 -2 -10 -2.5t-10 -2.5q-30 -12 -50 -33.5t-32 -51.5q-4 -9 -6 -19t-5 -21z" />
    <glyph glyph-name="trademark" unicode="&#x2122;" horiz-adv-x="990" 
d="M320 713q10 0 21 0.5t20 -0.5t15.5 -4.5t9.5 -11.5q1 -3 2 -7.5t-1 -8.5q-2 -11 -9 -17q-6 -3 -14.5 -3.5t-17.5 -0.5h-46q-8 0 -15.5 -0.5t-12.5 -3.5q-10 -5 -11 -15q-2 -6 -2 -13v-15v-261q0 -5 0.5 -10t-0.5 -9q-2 -5 -1 -8.5t-1 -7.5q-4 -8 -11 -11q-6 -3 -15 -3
q-10 -1 -19.5 1t-13.5 7q-3 4 -4.5 13t-1.5 19v20.5v18.5v230q0 7 0.5 14.5t-1.5 13.5q-2 11 -9 15q-3 2 -6.5 2.5t-7.5 1.5h-5q-5 2 -9.5 1.5t-9.5 -0.5h-38q-8 0 -16 0.5t-13 2.5q-11 5 -13 18.5t6 23.5q2 3 5.5 4.5t7.5 2.5q2 1 4 0.5t4 0.5h229zM925 347v-15.5t-2 -13.5
q-3 -10 -13 -13q-4 -2 -14 -2t-18.5 1.5t-12.5 6.5q-7 10 -6.5 29t0.5 35v163v33.5t-5 28.5q-1 2 -2 2.5t-2 1.5q-8 -1 -10.5 -6t-5.5 -10q-7 -13 -12 -27.5t-11 -28.5q-17 -40 -32 -80.5t-32 -81.5l-6.5 -17.5t-7.5 -19t-9 -17t-12 -10.5q-8 -4 -16.5 -2t-13.5 6
q-11 8 -17 25.5l-11 31.5q-17 40 -32 80t-32 80q-8 20 -15.5 41.5t-21.5 35.5q-2 0 -3 -0.5t-3 -0.5q-7 -14 -7 -35v-41v-153q0 -14 0.5 -34t-5.5 -28q-5 -6 -13 -7.5t-19 -1.5q-7 0 -15 2q-7 3 -9.5 8.5t-4.5 13.5v9q-1 5 -0.5 11.5t0.5 12.5v299q0 5 -0.5 10.5t0.5 10.5v9
q1 3 1.5 6.5t2.5 6.5q3 7 13 10q2 0 5 0.5t5 0.5q16 0 39 0.5t33 -5.5q6 -3 10 -10.5t7.5 -16t6.5 -17.5t6 -16q15 -35 29 -72l28 -73l11.5 -27.5t10.5 -27.5l6 -14t11 -9t12.5 5.5t6.5 12.5q7 17 13 33.5t13 33.5l27.5 71.5t28.5 71.5q5 13 11 30.5t17 24.5q9 6 24.5 5.5
t29.5 -0.5h21q14 -4 19 -11q2 -5 2.5 -12t0.5 -15v-328z" />
    <glyph glyph-name="acute" unicode="&#xb4;" horiz-adv-x="222" 
d="M157 729q7 0 17.5 0.5t20 0t17.5 -2.5t11 -6q1 -4 -1 -11q-2 -6 -8 -12l-11 -11t-9.5 -10.5l-9.5 -11.5q-3 -5 -7.5 -8.5t-8.5 -8.5q-2 -2 -2.5 -3t-2.5 -2q-4 -5 -8 -8.5t-8 -8.5q-2 -4 -5.5 -7t-6.5 -6q-4 -5 -8.5 -10t-9.5 -8q-7 -4 -22.5 -6.5t-24.5 2.5
q-3 2 -5.5 6.5t-0.5 10.5q2 8 6 14.5t9 12.5l17 29l18 29l8 14.5t11 12.5t14 8q3 0 5.5 0.5t4.5 0.5z" />
    <glyph glyph-name="dieresis" unicode="&#xa8;" horiz-adv-x="222" 
d="M61 662q1 -5 1 -11v-11q0 -16 -2 -28t-13 -17q-5 -2 -11 -2h-12q-13 0 -24 0.5t-18 5.5q-8 6 -8 21.5v29.5v17t3 15q4 9 16 12q2 1 4.5 0.5t4.5 0.5q17 0 34.5 -0.5t22.5 -13.5q1 -2 1 -5t1 -5v-9zM249 653v-34.5t-13 -23.5q-5 -2 -11.5 -2h-14.5q-14 0 -26 0.5t-18 8.5
q-5 6 -5 17.5v22.5q0 5 -0.5 9.5t0.5 7.5v10q1 3 1 6.5t2 5.5q3 8 14 12q3 1 5.5 1t4.5 1h34t23 -11q4 -5 4 -14v-17z" />
    <glyph glyph-name="notequal" unicode="&#x2260;" horiz-adv-x="549" 
d="M421 657q12 0 15 -5.5t2.5 -13t-4 -15.5t-5.5 -13q-2 -3 -2.5 -6t-1.5 -5q-14 -34 -26.5 -68l-26.5 -69l-6 -16.5t-7 -16.5q-1 -4 -1.5 -9t1.5 -10t7.5 -7t12.5 -4h10q8 -2 18.5 -1t18.5 1h75q14 0 22 -2.5t12 -12.5q0 -2 1 -5.5t0 -5.5q-2 -4 -3 -7q-5 -9 -19.5 -9.5
t-30.5 -0.5h-127q-7 -2 -12 -2.5t-10 -4.5q-9 -6 -12.5 -16.5t-8.5 -21.5q-8 -18 -14.5 -37t-14.5 -37l-6 -16l-6 -16q-2 -4 -3 -8.5t1 -9.5q2 -7 9 -10t16 -4t19.5 -0.5t19.5 0.5h146q21 0 36.5 -1t19.5 -18q1 -5 -0.5 -9t-3.5 -6q-7 -11 -26 -10.5t-36 0.5h-150
q-15 0 -36.5 0.5t-32.5 -4.5q-14 -5 -20 -22l-11 -30l-29 -70.5l-28 -70.5l-10 -27t-14 -23q-2 -3 -7.5 -6t-12.5 0q-5 2 -7 7t0 12q3 11 7 21.5l8 20.5l27 66.5l27 67.5q3 8 6.5 16t5.5 17q2 10 -2 17q-6 7 -19 7.5t-26 0.5h-79q-20 0 -33.5 1t-17.5 18q-1 8 3 14
q5 8 15.5 9.5t24.5 1.5h138q7 2 12 3t10 5q8 5 11 15.5t8 19.5l15 39l15 39l6 15.5l6 15.5q1 2 2.5 7t-0.5 10q-2 7 -8.5 10t-15.5 4t-19.5 0.5t-19.5 -0.5h-148q-19 0 -35 1t-20 16q-2 6 0.5 10.5t4.5 6.5q7 10 26 9.5t35 -0.5h155q16 0 36 -0.5t30 6.5q12 8 19 29t13 35
q14 31 25 62t24 61q6 13 11 29t13 27q2 2 4.5 4t4.5 3z" />
    <glyph glyph-name="AE" unicode="&#xc6;" horiz-adv-x="926" 
d="M890 66q1 -3 2 -10t1.5 -14.5t-0.5 -14.5t-2 -11q-2 -6 -7 -10q-6 -5 -15 -5h-18h-362q-12 0 -21.5 1t-14.5 9t-5 20.5v24.5v70q0 8 1 17t-1 17v22q-2 5 -3 9.5t-3 8.5q-5 6 -18 8h-9t-8 1h-143h-34.5t-26.5 -7q-10 -7 -15.5 -19l-10.5 -23l-24 -48t-23 -49l-6 -10.5
t-5 -10.5q-5 -11 -11 -22t-17 -16q-8 -4 -20.5 -3.5t-23.5 0.5h-20t-16 4q-2 2 -4 7t0 10q2 8 5.5 14.5t6.5 13.5q17 32 32 63.5t32 63.5l94 185.5l94 185.5q10 19 19 38t19 38q5 9 9 18.5t9 17.5q2 2 2.5 5t2.5 5q6 12 14 26q4 6 6 8q7 5 14 8q2 1 5.5 0t5.5 1h464h19.5
t15.5 -4q5 -3 7 -7.5t4 -11.5v-7q2 -10 0 -19v-6q-2 -6 -3.5 -11t-6.5 -8q-8 -5 -21 -4.5t-25 0.5h-229q-14 0 -29.5 0.5t-24.5 -4.5q-10 -7 -10.5 -21t-0.5 -31v-130q0 -4 -0.5 -8t0.5 -7q0 -5 1 -7q2 -11 10 -16q3 -2 7 -2.5t8 -2.5h12h14h200q16 0 38 0.5t31 -5.5
q4 -4 6 -10q3 -7 3 -22.5t-2 -23.5q-3 -8 -8 -13q-9 -6 -31 -5t-37 1h-185q-21 0 -40.5 -0.5t-24.5 -16.5q-2 -7 -2 -15v-16v-154q0 -12 0.5 -23.5t7.5 -16.5q6 -5 16 -6t21 -1h265q7 0 14 0.5t13 -1.5q13 -4 16 -12zM448 552q0 8 1 17t-1 17v22q-2 6 -3 10t-3 8q-6 7 -23 7
q-1 -1 -3 -1q-2 -1 -4.5 -2t-4.5 -2q-8 -5 -12.5 -15.5l-8.5 -19.5q-5 -12 -12 -24t-12 -25l-8.5 -16.5l-8.5 -16.5q-11 -26 -23.5 -50t-23.5 -50q-4 -8 -8.5 -15.5t-7.5 -15.5l-15.5 -31t-14.5 -31q-8 -22 8 -29q8 -3 21.5 -2.5t24.5 0.5h91q15 0 28 1t18 10q5 8 5 25.5
v30.5v198z" />
    <glyph glyph-name="Oslash" unicode="&#xd8;" horiz-adv-x="760" 
d="M721 371q1 -3 1.5 -13t-0.5 -14q-1 -3 -0.5 -6.5t-0.5 -6.5l-3 -33q-1 -5 -1 -11t-2 -12q-5 -17 -8 -34.5t-10 -33.5l-10 -27.5t-13 -26.5l-12 -20t-13 -19q-18 -26 -41.5 -46.5t-50.5 -37.5q-14 -8 -28 -14l-29 -12q-5 -2 -8.5 -2.5t-8.5 -2.5q-12 -4 -25.5 -6t-27.5 -5
q-5 -2 -10 -1.5t-10 -0.5h-7q-5 -2 -16 -2t-16 1h-13q-4 2 -8.5 1t-9.5 1q-11 2 -21.5 3t-21.5 4q-25 7 -47 14.5t-42 19.5q-14 8 -25 16l-10.5 8.5t-12.5 6.5q-8 2 -13.5 -1t-9.5 -6q-5 -4 -9.5 -9t-9.5 -10l-6 -6l-10 -11.5l-10 -10.5t-12.5 -10.5t-17.5 -0.5q-4 1 -8 7
q-6 8 -4 15.5t7 14.5q2 3 5.5 5.5t5.5 5.5q8 11 18 20t18 20q4 5 8 12t1 17q-2 6 -6 11.5t-7 10.5q-5 8 -9 15.5t-9 15.5q-11 21 -18 44.5t-14 49.5q-2 8 -3 16t-3 17q-1 5 -1 12t-2 13q-1 4 -0.5 8t-0.5 7v12q-2 6 -1.5 19.5t2.5 19.5v8q2 8 1.5 16.5t1.5 16.5l3 18
q3 13 5.5 25.5t6.5 24.5q20 61 55 111q5 7 10.5 13t10.5 13q2 2 5 4.5t5 4.5q5 8 16 15l5 5t6 5q16 12 33.5 23t37.5 19q11 5 23.5 8.5t24.5 7.5q9 2 18 3.5t18 3.5q5 1 9 0.5t8 0.5q6 1 12 1t12 1q39 1 73.5 -4t62.5 -16q9 -4 18 -7t17 -8l18 -10t17 -11l16 -12.5t19 -8.5
q8 -2 14.5 3t8.5 8l10.5 10.5t10.5 11.5l9 9l6.5 8.5t7.5 7.5q9 7 19 7t16 -11q5 -11 -1 -19t-11 -13q-8 -10 -16.5 -18.5t-15.5 -18.5q-5 -6 -10 -11t-7 -13q-2 -7 1 -12.5t5 -10.5q6 -11 13 -22.5t13 -23.5q8 -16 14 -34l12 -36q2 -8 3 -14.5t3 -14.5t2.5 -16t2.5 -16v-10
q2 -5 2 -10v-10v-13zM180 184q6 -2 11.5 -0.5t10 5.5t8 8t5.5 7q2 2 3 2.5t3 2.5l9.5 11l9.5 11l4 4q5 5 9 10l9 11q1 1 2 1.5t2 1.5q10 13 21 24l18 19.5t17 19.5q3 3 5 4l9.5 11l9.5 11q2 3 5 5.5t5 4.5q9 13 20 23.5t21 22.5q3 5 7 8t8 8q14 18 30 33.5t30 33.5
q2 2 4.5 5t5.5 5q8 11 19 21.5t19 21.5q6 8 13.5 15t10.5 18q1 5 -1 9t-4 7q-5 8 -11 13t-14 10q-16 11 -33 18.5t-39 13.5q-9 3 -19 4t-20 3q-8 2 -19 1t-19 -1q-2 -2 -7.5 -1t-8.5 0q-8 -2 -15.5 -3t-14.5 -3q-23 -7 -41 -14.5t-35 -19.5q-35 -24 -57.5 -59.5t-36.5 -79.5
q-4 -11 -6 -22.5l-4 -23.5q-2 -10 -2 -16q-2 -6 -1.5 -13t-1.5 -13v-10q-2 -5 -2 -16.5t2 -16.5v-18q2 -8 2.5 -17t2.5 -17q2 -7 2.5 -13.5t2.5 -12.5q4 -14 8 -26.5t9 -23.5q4 -8 7.5 -16.5t11.5 -11.5zM628 340q1 3 0.5 7.5t-0.5 8.5q0 9 0.5 17.5t-1.5 16.5v5
q-2 6 -1.5 12t-1.5 12q-2 5 -2 11.5t-2 11.5q-4 11 -6.5 22t-6.5 22q-3 5 -5.5 12.5t-6 14t-8.5 11t-12 4.5q-1 -1 -4 -1q-2 -1 -3.5 -2t-3.5 -2l-8 -8q-5 -4 -8.5 -8l-7.5 -9q-7 -7 -10 -11q-5 -7 -11.5 -13t-11.5 -13q-3 -4 -7 -7t-7 -7q-8 -10 -16.5 -18.5t-16.5 -18.5
l-5 -5q-6 -8 -13 -15t-14 -15q-1 -2 -2 -2.5t-2 -2.5l-10 -10.5l-10 -11.5l-5 -5q-11 -15 -25 -28t-25 -28q-3 -5 -7 -8t-8 -8q-4 -6 -9 -11l-10 -10q-1 -2 -5 -4q-4 -6 -8.5 -11t-8.5 -10q-2 -2 -3 -2.5t-2 -1.5q-11 -14 -24 -27t-24 -27q-5 -7 -11 -12.5t-9 -15.5t5.5 -19
t13.5 -13q16 -12 34 -20.5t39 -15.5q9 -3 18 -4t18 -3q5 -1 9.5 -0.5t8.5 -0.5t14.5 -1t14.5 1h8q4 1 8 1t9 1q13 3 25.5 5.5t23.5 7.5q7 3 13 5t12 6l16.5 10t16.5 11q18 14 32 31.5t26 37.5q8 12 13 25l10 27q6 14 9 30.5t7 33.5q1 8 1.5 17t2.5 18v10z" />
    <glyph glyph-name="infinity" unicode="&#x221e;" horiz-adv-x="713" 
d="M677 318q4 -12 6 -28.5t2 -34t-2 -34t-6 -28.5q-7 -22 -15.5 -39.5t-20.5 -34.5q-2 -3 -5.5 -5.5t-5.5 -5.5q-14 -18 -35 -31t-46 -21q-14 -5 -34.5 -4.5t-34.5 5.5q-17 6 -29.5 14t-26.5 18q-5 4 -9 9l-7 9l-15 20.5t-14 20.5q-5 7 -10 15.5t-14 10.5q-8 2 -14.5 -4.5
t-8.5 -10.5q-11 -15 -23 -29t-27 -25q-20 -14 -43 -21q-7 -2 -14 -2.5t-15 -2.5h-7q-9 -2 -22.5 -0.5t-21.5 3.5q-6 2 -12 3t-12 3q-49 20 -77 60q-16 23 -25 55q-2 8 -3 17t-3 18v20q0 11 0.5 22t3.5 20l3.5 18t4.5 16q12 30 32.5 53.5t49.5 36.5q7 3 14.5 5l15.5 4
q4 1 7.5 1t7.5 1h9q18 0 30 -4q6 -2 11.5 -3t10.5 -3q32 -14 53 -43q6 -8 11.5 -16.5t13.5 -16.5q2 -2 5.5 -4.5t9.5 -0.5q8 2 14 13t11 19q9 15 20.5 29t25.5 25q13 9 28 14.5t33 10.5q7 2 14.5 2t15.5 2q2 1 6 0t6 0q35 1 62 -8.5t47 -23.5q5 -3 8.5 -6.5t8.5 -6.5
q1 -2 2 -3t2 -3q12 -9 24 -25.5t18 -31.5q4 -8 6.5 -16t4.5 -17zM298 268l2.5 10t-0.5 12q-4 16 -11 28t-15 23q-15 20 -33 31.5t-45 18.5q-7 2 -16 1.5t-17 -0.5q-5 -1 -8.5 -1.5t-7.5 -0.5q-7 -2 -13 -4l-12 -4q-26 -11 -41.5 -32.5t-24.5 -49.5q-2 -7 -2.5 -13.5
t-2.5 -13.5v-7q-2 -8 -1 -20.5t3 -19.5q2 -8 3 -15.5t4 -14.5q16 -42 51 -65q12 -8 32 -14q3 -1 5.5 -0.5t6.5 -0.5q3 -1 8.5 -1.5t8.5 0.5q11 3 21 5t18 7q30 18 44.5 43t28.5 59q4 10 7 19zM658 241q3 11 1.5 29t-4.5 27q-2 8 -3.5 15t-4.5 15q-13 30 -34.5 53t-51.5 35
q-11 5 -22.5 6t-25.5 1q-1 -1 -2.5 -0.5t-3.5 0.5q-4 -1 -7.5 -1.5t-8.5 -1.5q-19 -6 -32 -15q-26 -18 -39.5 -47l-26.5 -59q-14 -31 -23 -59q-5 -16 3 -31l13 -24q17 -28 36 -49t53 -32q11 -4 20 -5q6 0 8 -1q2 0 7.5 -0.5t7.5 -0.5q4 1 8 0.5t8 0.5q8 2 15.5 3.5t15.5 4.5
q58 23 83 84q4 9 5.5 18.5t4.5 19.5q1 4 0 7t0 7z" />
    <glyph glyph-name="plusminus" unicode="&#xb1;" horiz-adv-x="600" 
d="M107 272q-15 0 -31 0.5t-22 8.5q-6 9 -5 27.5t9 24.5q7 5 20 5h26h106q14 0 29 0.5t21 8.5q5 7 6 18.5t1 23.5v65q0 8 -0.5 17.5t1.5 16.5q3 10 14 15q3 0 6 0.5t6 0.5q10 1 19.5 -0.5t13.5 -7.5q5 -6 5.5 -16t0.5 -21v-69q0 -13 0.5 -26.5t8.5 -18.5q8 -6 22 -6.5
t28 -0.5h104h26t20 -5q5 -4 6 -9.5t3 -12.5q1 -2 0.5 -5.5t-0.5 -5.5v-5q-2 -4 -2.5 -7.5t-2.5 -6.5q-6 -8 -21 -8.5t-29 -0.5h-106h-26t-21 -5q-8 -6 -9 -19.5t-1 -27.5v-70v-20.5t-5 -15.5q-5 -5 -12 -6t-16 -3q-2 0 -5 0.5t-5 0.5q-5 1 -8 1.5t-6 2.5q-8 6 -8.5 20.5
t-0.5 28.5v66q0 13 -1 24.5t-9 17.5q-8 5 -21 5h-25h-104zM546 58q3 -5 3 -9t2 -10q0 -2 0.5 -5t-0.5 -5l-3.5 -14t-7.5 -10t-16 -4h-19h-405h-20.5t-17.5 3q-6 3 -9.5 11t-4 17.5t2 18t8.5 12.5q3 2 13 4q2 1 3.5 0.5t3.5 0.5h420q14 0 28 -1t19 -9z" />
    <glyph glyph-name="lessequal" unicode="&#x2264;" horiz-adv-x="549" 
d="M47 329q-9 5 -18 9t-13 13t-1.5 19t7.5 14q9 7 19 11t21 9q16 7 31.5 13t31.5 13l136 58l136 58q22 10 43 18.5l42 17.5l21 9q4 1 10 3q13 0 17 -5q5 -7 3.5 -17t-6.5 -15q-4 -5 -10.5 -8l-12.5 -6q-11 -5 -23 -9.5t-23 -9.5l-135.5 -56l-134.5 -56q-17 -8 -34.5 -14.5
t-34.5 -14.5q-7 -2 -15 -5.5t-10 -11.5t5.5 -13t12.5 -7q19 -10 38.5 -17.5l39.5 -15.5l135 -56l135 -56l23 -10l24 -10l11.5 -6t9.5 -8q3 -5 4.5 -12.5t-0.5 -14.5q-4 -8 -13.5 -8t-17.5 4l-45.5 19l-45.5 19l-146 62.5l-146 62.5q-18 8 -36 15t-35 15zM526 -38
q4 -3 7 -8.5t1 -13.5q-4 -13 -16 -15t-28 -2h-432h-19t-16 4q-9 6 -9 18t9 18q2 1 5.5 1.5t5.5 1.5h6h451h19.5t15.5 -4z" />
    <glyph glyph-name="greaterequal" unicode="&#x2265;" horiz-adv-x="549" 
d="M431 344q5 2 14 7t7 14q-2 7 -9.5 10.5l-13.5 6.5l-33.5 13.5l-33.5 13.5q-65 29 -130.5 55t-130.5 55l-27.5 11.5t-27.5 10.5q-7 4 -14 6.5t-12 7.5q-4 5 -7 14.5t2 17.5q2 3 4.5 4t4.5 3q14 0 24 -5t20 -9l36.5 -16l37.5 -16l143 -60.5l143 -61.5q17 -8 34 -14.5
t34 -14.5q7 -3 16 -6.5t13 -8.5q5 -5 7 -14t-2 -18t-12.5 -13l-17.5 -8l-36 -15.5l-36 -15.5l-147.5 -62.5l-147.5 -62.5q-21 -10 -42.5 -19l-43.5 -18q-9 -4 -19 -4.5t-14 9.5q-4 8 -1 15.5t7 11.5q4 6 10 9t13 5q10 5 20 9t21 9l136.5 56.5l135.5 56.5l38 15.5t37 15.5z
M525 -38q4 -3 7 -8.5t1 -13.5q-4 -13 -16 -15t-28 -2h-432h-19t-16 4q-9 6 -9 18t9 18q2 1 5.5 1.5t5.5 1.5h6h451h19.5t15.5 -4z" />
    <glyph glyph-name="yen" unicode="&#xa5;" 
d="M35 712q15 0 37.5 0.5t31.5 -4.5q8 -5 11.5 -12l7.5 -15l11 -21l11 -21q23 -44 43.5 -88.5t43.5 -87.5q8 -16 14.5 -31.5t15.5 -29.5q4 -6 7 -13t10 -9q8 -2 12.5 3t7.5 10q9 15 16 31.5t15 32.5l23.5 48l22.5 49q2 3 3.5 6t3.5 6q7 17 15 32.5l16 32.5l10.5 22l10.5 22
q4 8 7.5 16.5t10.5 13.5q9 7 24.5 7h31.5q8 0 15.5 -0.5t12.5 -3.5q5 -4 5 -11t-2 -14q-8 -16 -17 -31q-4 -6 -6.5 -12.5t-5.5 -12.5l-46 -89.5l-46 -89.5l-12 -22.5t-11 -22.5q-2 -3 -5 -9.5t-2 -11.5q3 -13 16.5 -14t28.5 -1h9t8 -1q18 -6 18 -29q0 -9 -1 -13
q-2 -7 -8 -11q-9 -5 -29.5 -4.5t-34.5 0.5h-9.5t-8.5 -1h-12q-3 -1 -7 -1t-7 -1q-8 -4 -13 -11t-9 -17q-2 -5 -3 -13t1 -15q1 -7 9 -13q6 -4 14.5 -4.5t18.5 -0.5h56h16t14 -2q6 -4 9 -7q5 -7 5 -19.5t-4 -19.5t-20 -10h-9q-5 -1 -11.5 -0.5t-12.5 0.5h-46q-11 0 -20.5 -1.5
t-14.5 -8.5q-5 -6 -5.5 -16t-0.5 -21v-57q0 -7 1 -14.5t-1 -13.5v-17q-2 -8 -4.5 -14t-9.5 -9q-6 -2 -13.5 -2h-15.5q-16 0 -29 1t-18 12q-3 7 -3 17v20v73q0 14 -1 26.5t-9 18.5q-6 5 -14 5.5t-18 0.5h-44q-5 0 -11 -0.5t-11 0.5h-9q-17 3 -21 13q-2 3 -2 6t-1 6q-1 5 1 12
q4 16 13 18.5t27 2.5h50q18 0 30.5 2t17.5 16q2 7 1 15.5t-3 13.5q-5 10 -10.5 17.5t-16.5 10.5q-2 1 -4.5 1h-4.5h-12q-4 1 -8 1h-9q-8 0 -18.5 -0.5t-20 0t-17.5 2.5t-11 7q-4 5 -4 15q-2 6 0 13q3 14 10 17q11 7 29 4.5t30 2.5q8 4 9 10v4q0 8 -3.5 14.5t-6.5 11.5
l-12 24t-13 24q-1 2 -1.5 3.5t-1.5 3.5q-5 8 -9 16.5t-9 16.5q-2 2 -2 4t-2 4q-6 10 -11 20t-11 20q-1 2 -1.5 4t-2.5 4l-7.5 15.5t-8.5 15.5t-9.5 17t-9.5 18l-16 30l-16 30q-2 5 -4 12t1 12q4 5 12 7q2 1 4 0.5t4 0.5z" />
    <glyph glyph-name="mu" unicode="&#xb5;" 
d="M92 517q14 0 29.5 -0.5t21.5 -8.5q5 -8 5 -22.5v-28.5v-123v-121q0 -35 2.5 -62t16.5 -47q18 -25 51 -36q8 -2 16 -2t16 -2q5 -2 13 -1t13 2q3 1 6 0.5t7 0.5q12 3 23 6.5t21 9.5q4 2 7.5 4l8.5 5q17 12 29.5 30.5t19.5 40.5q3 8 4.5 16.5t3.5 16.5q1 4 0.5 7.5t0.5 6.5
v14t1 14v15v28v90v95v24t5 19q5 8 16.5 8.5t24.5 0.5q7 0 14 -0.5t12 -3.5q8 -5 9.5 -15.5t1.5 -24.5v-73v-282v-71v-20.5t-5 -15.5t-13 -8q-4 -1 -11 -1.5t-14.5 0t-14 1t-9.5 2.5q-6 4 -9 12q-2 4 -2 10.5t-1 12.5t-3 10.5t-6 5.5q-4 4 -9 -1q-5 -3 -10 -7.5t-10 -8.5
q-25 -26 -66 -39q-8 -3 -17.5 -4.5t-18.5 -3.5q-5 -1 -9 0t-9 0q-4 -2 -10.5 -2t-11.5 2h-8q-3 1 -7 0.5t-8 0.5q-9 2 -16.5 5l-15.5 6q-7 3 -14 3.5t-11 -5.5q-4 -7 -4 -20.5v-23.5v-98v-26t-5 -21q-5 -7 -16.5 -7.5t-24.5 -0.5q-7 0 -13 0.5t-11 2.5q-11 5 -12 18t-1 28
v117v399v94q0 11 -0.5 23t4.5 19q4 7 15 10q2 1 4 0.5t4 0.5z" />
    <glyph glyph-name="partialdiff" unicode="&#x2202;" horiz-adv-x="494" 
d="M484 483q1 -5 1 -15t-1 -16v-24v-15t-2 -15v-7q-1 -4 -1 -8t-1 -8q0 -10 -1 -15q-1 -6 -1 -12t-2 -12q-3 -14 -5 -28.5t-7 -28.5q-5 -16 -9 -31t-10 -29q-23 -57 -52.5 -107.5t-76.5 -83.5q-5 -4 -10.5 -7.5t-11.5 -6.5q-10 -6 -21.5 -10t-23.5 -9q-7 -2 -13.5 -2.5
t-13.5 -2.5h-10q-7 -2 -21.5 -2t-21.5 2l-23.5 4t-22.5 7q-53 22 -78 76q-4 9 -5.5 18t-4.5 19q-1 5 -1 10.5t-2 10.5v10v8q1 3 0.5 6.5t0.5 5.5q1 5 0.5 10t0.5 10q3 13 5 25t6 23q21 63 60.5 112.5t97.5 75.5q13 5 26.5 9l27.5 8l21 3h5q16 4 30 0q2 0 5 -0.5t5 -0.5
q4 -1 8 -1.5t9 -1.5q12 -3 23 -7t21 -9q14 -8 25 -16.5t22 -18.5q2 -2 7 -5.5t10 -1.5t6 5t3 8q2 9 2.5 21t0.5 23q0 41 -8.5 72t-25.5 55q-28 38 -79 55q-6 2 -12.5 3t-13.5 3q-5 0 -8 1q-8 2 -23 2t-23 -2q-4 -1 -11 -1l-21 -5.5t-19 -6.5q-28 -12 -51 -35
q-4 -5 -10 -11.5t-15 -4.5q-5 7 0 18q4 8 9 15.5l10 15.5q15 23 35.5 42t48.5 30q8 4 16.5 5.5t16.5 3.5q5 1 9 1.5t9 0.5q64 1 105.5 -28.5t60.5 -72.5q4 -9 6.5 -18t6.5 -18l4 -18.5l4 -18.5q1 -4 1 -8t1 -8v-10t1 -10zM442 289q5 17 -2.5 33l-12.5 26q-20 31 -49 51
t-80 20q-2 -2 -6 -1.5t-7 -0.5q-6 -2 -12.5 -3t-12.5 -3q-20 -8 -40 -22q-4 -3 -7.5 -6.5t-7.5 -6.5q-5 -3 -9 -10l-4.5 -4.5l-4.5 -4.5l-9 -13l-9 -14q-14 -22 -24 -47t-18 -53q-4 -11 -5.5 -23t-4.5 -24q-1 -7 -1.5 -14t-1.5 -14v-9q-2 -10 -0.5 -25.5t3.5 -23.5
q2 -6 2.5 -11t2.5 -10q18 -44 62 -60q8 -2 22.5 -3t24.5 2q5 2 11 3t11 3q25 10 47 27q57 41 89 102.5t53 138.5z" />
    <glyph glyph-name="summation" unicode="&#x2211;" horiz-adv-x="713" 
d="M51 692h404h119q12 0 29.5 0.5t26.5 -2.5q9 -4 12 -11.5t5 -18.5v-11q2 -11 2 -22.5t2 -22.5q2 -5 1 -9.5t0 -9.5q1 -4 1 -16t-2 -15q0 -2 -3 -5q-1 -1 -3 -1q-4 2 -5 3q-2 3 -2.5 6.5t-2.5 6.5l-4 10.5l-4 10.5q-7 14 -16 27t-21 22q-23 16 -51.5 18t-67.5 2h-161h-100
q-12 0 -23.5 -1t-14.5 -9q-2 -8 2.5 -15t7.5 -11l22 -30.5l22 -29.5l75 -101.5l74 -100.5q9 -14 19 -26t19 -25q2 -4 6 -10.5t2 -14.5q-2 -11 -8.5 -19l-12.5 -16l-21.5 -28l-20.5 -28l-77 -104.5l-77 -103.5l-27.5 -36.5l-26.5 -35.5q-4 -5 -9 -14t0 -17q5 -6 14 -6.5
t20 -0.5h82h214q36 0 68 1t57 12l10 4l10 4q15 10 25.5 23.5t19.5 30.5q3 6 7 16.5t12 10.5q3 -1 4 -4q3 -4 2 -16t-3 -17v-8q-2 -6 -2 -12t-1 -13q-5 -17 -6 -35.5t-6 -36.5q-3 -11 -3.5 -22t-8.5 -16q-8 -6 -20.5 -6.5t-25.5 -0.5h-97h-347h-91h-22.5t-18.5 4
q-9 6 -5.5 16t7.5 17q5 6 9.5 12t9.5 12l20 27.5l20 27.5q8 11 16.5 21t16.5 21q34 49 70.5 96l71.5 96q3 4 6.5 8t6.5 8q8 12 16.5 23.5l17.5 23.5q6 9 13.5 17.5t10.5 21.5q2 9 -3.5 17t-9.5 13q-11 16 -22.5 30.5l-22.5 29.5l-73 98l-73 97q-10 14 -20.5 26t-19.5 26
l-28 37.5l-28 37.5q-4 5 -10 14t-2 17q3 7 14 10q2 0 4 -0.5t4 1.5z" />
    <glyph glyph-name="product" unicode="&#x220f;" horiz-adv-x="823" 
d="M102 693h505h82q11 0 22.5 0.5t20.5 -1.5q8 -2 20.5 -2t15.5 -6v-1l-2 -2q-5 -3 -9.5 -4.5t-9.5 -3.5q-26 -11 -36 -34q-6 -14 -6.5 -32.5t-0.5 -37.5v-111v-404v-127q0 -9 -1 -20.5t1 -19.5v-9q1 -5 1 -9t1 -9q4 -18 10.5 -29t20.5 -19q5 -3 10.5 -5.5t10.5 -4.5
q2 -1 5.5 -2t3.5 -5q-8 -5 -16.5 -5t-18.5 -2h-11q-7 -2 -14.5 -1.5t-14.5 0.5h-55h-32h-8.5t-7.5 1h-11q-6 2 -13 1.5t-12 1.5q-3 1 -6 1.5t-5 2.5v2q5 4 11.5 6.5t12.5 4.5q22 10 31 30q7 14 7.5 33t0.5 40v111v416v148q0 16 0.5 34t-5.5 27q-4 5 -9 6t-12 3h-10
q-4 1 -9 1h-10h-39h-185h-57h-9.5t-7.5 -1h-14q-20 -5 -21 -22t-1 -40v-151v-407v-120q0 -17 -0.5 -35t4.5 -32q9 -25 30 -38q5 -3 10.5 -5l10.5 -4q2 -2 4.5 -2.5t3.5 -2.5v-2q-7 -4 -16.5 -4.5t-19.5 -2.5h-11q-6 -2 -13.5 -1.5t-13.5 0.5h-55h-31h-9t-8 1h-10
q-6 2 -13 1.5t-12 1.5q-3 1 -6 1.5t-5 2.5v2q5 3 10.5 5.5t10.5 4.5q12 5 21 13.5t14 20.5q6 14 7 32t1 38v111v405v127q0 12 0.5 27t-1.5 25q-2 5 -1 8.5t-1 8.5q-8 31 -33 46q-5 3 -11 5t-11 5q-2 1 -4 1.5t-3 4.5q6 4 14 4.5t16 2.5q3 1 9 0t8 1z" />
    <glyph glyph-name="pi" unicode="&#x3c0;" horiz-adv-x="505" 
d="M152 446h243h41q5 0 10.5 0.5t10.5 -0.5h5q5 -1 9.5 -2.5t6.5 -4.5q3 -5 5 -13t1.5 -17t-3 -16.5t-7.5 -10.5q-5 -4 -12.5 -4.5t-16.5 -0.5q-15 0 -35.5 0.5t-29.5 -5.5q-9 -7 -9.5 -17.5t-2.5 -23.5q0 -10 -1 -15l-6 -84v-10.5t-1 -10.5t-1 -11.5v-11.5v-10
q-2 -5 -1.5 -10.5t0.5 -10.5v-9q2 -10 2 -20t2 -19q5 -17 12 -26.5t23 -15.5q5 -2 12 -3t13 1q3 1 5.5 1.5t5.5 1.5q9 4 15.5 9.5t12.5 12.5q2 2 4.5 5.5t6.5 1.5q5 -2 3 -12q0 -5 -1 -11t-3 -11q-14 -41 -47 -62q-10 -6 -23 -8.5t-26.5 -2t-26 3.5t-21.5 9q-29 17 -39 55
q-1 5 -2 11t-2 11v9q-1 5 -0.5 14.5t1.5 14.5v9q1 5 0.5 11.5t1.5 11.5v13q2 10 2 20.5t2 20.5q0 7 1 11q2 14 2 28.5t3 28.5q1 7 1.5 13t0.5 13q2 8 2 15.5t2 15.5v11q1 5 1 12t-2 11q-4 10 -18 13q-4 1 -12 1q-4 1 -9 0.5t-10 -0.5q-12 0 -23.5 -0.5t-19.5 -5.5
q-4 -3 -5.5 -8.5t-3.5 -11.5q0 -6 -1 -9q-2 -11 -1.5 -23.5t-1.5 -23.5q-1 -4 -1 -12q-2 -12 -2 -25t-3 -25v-10q-2 -8 -2 -16t-2 -15q0 -6 -1 -9q-2 -10 -2.5 -20.5t-2.5 -20.5q-1 -5 -1 -11t-2 -11q-4 -15 -6 -30t-7 -29q-7 -22 -14.5 -39.5t-28.5 -26.5q-5 -2 -14 -4
t-17 0q-5 2 -10.5 3t-9.5 4q-11 7 -18.5 20.5t-1.5 32.5q2 7 5.5 13.5t7.5 12.5q6 11 13.5 20.5t13.5 20.5q10 15 18.5 31.5t15.5 34.5q7 16 11 33.5t9 36.5q2 7 2 13t2 13q3 14 3.5 28.5t3.5 28.5q2 7 1 16t-3 13q-5 8 -18 10.5t-27 -0.5q-5 -2 -11 -2.5t-11 -2.5
q-14 -6 -24 -14t-19 -17q-5 -5 -10 -11t-13 -4q-5 8 0 20.5l8 19.5q11 25 28 45.5t44 29.5q8 2 16.5 2.5t16.5 2.5q4 2 10 0.5t8 0.5z" />
    <glyph glyph-name="integral" unicode="&#x222b;" horiz-adv-x="274" 
d="M106 718q6 76 25 123q13 33 36 49t45 16q24 0 42 -16.5t18 -37.5q0 -22 -13 -35t-30 -13q-19 0 -38 16q-10 10 -20 10q-7 0 -13 -7t-6 -24q0 -9 1 -26.5t4 -42.5q9 -100 13 -180.5t4 -142.5q0 -17 -1 -87t-6 -198q-6 -143 -44 -193q-24 -32 -65 -32q-25 0 -41 16.5
t-16 42.5q0 22 13 34t30 12q20 0 34 -14q16 -16 24 -16q19 0 19 30q0 9 -1 23t-4 34q-7 68 -12 163q-3 61 -4 114.5t-1 99.5l7 282v0z" />
    <glyph glyph-name="ordfeminine" unicode="&#xaa;" horiz-adv-x="378" 
d="M349 417q5 -11 -0.5 -19.5t-12.5 -11.5q-15 -6 -32.5 -3t-27.5 11q-5 4 -12 12t-18 6q-9 -2 -16.5 -7.5t-15.5 -8.5q-9 -4 -18 -6.5l-19 -5.5q-6 -1 -18.5 -2t-17.5 0h-12q-6 1 -11.5 1.5t-11.5 1.5q-25 6 -42.5 17t-28.5 31q-5 11 -8 26.5t1 30.5q8 29 26.5 45t45.5 25
q8 2 17.5 3.5t18.5 3.5q6 2 11.5 1.5t11.5 1.5q13 3 29 4.5t30 4.5t25 9t15 18q3 10 -0.5 19t-7.5 14q-7 10 -20 15q-10 4 -24.5 5.5t-29 1t-27.5 -3.5t-21 -8q-11 -6 -20 -18q-4 -6 -7 -11.5t-8 -9.5q-7 -5 -20 -5t-21 5q-11 8 -5.5 23t10.5 22q14 20 32.5 30.5t45.5 18.5
q7 2 14 2t14 2q3 1 8.5 0.5t7.5 0.5q47 1 82 -11t49 -44q5 -11 5.5 -26t0.5 -32v-81q0 -18 -0.5 -40t7.5 -33q5 -8 13.5 -12t12.5 -13zM251 477q5 11 7 28.5t-6 27.5q-5 5 -19 5q-2 -2 -5.5 -1.5t-5.5 -0.5q-7 -2 -13.5 -2.5t-13.5 -2.5q-14 -3 -27.5 -5t-26 -5t-22.5 -9
t-17 -16q-6 -9 -7.5 -21.5t5.5 -23.5q5 -8 13.5 -12.5t18.5 -6.5q4 0 7 -0.5t6 -0.5q5 -1 14 -1t14 1q7 2 13.5 2.5t12.5 2.5q17 5 31 15t21 26z" />
    <glyph glyph-name="ordmasculine" unicode="&#xba;" horiz-adv-x="384" 
d="M358 550v-11t-1 -11t-0.5 -9t-0.5 -9q-3 -12 -5.5 -23t-7.5 -21q-21 -48 -70 -70q-7 -3 -13.5 -5l-13.5 -4t-15 -2.5t-16 -2.5q-4 -2 -8.5 -1t-8.5 0q-3 -1 -10.5 -0.5t-9.5 1.5q-5 1 -10.5 0.5t-10.5 0.5q-8 2 -16.5 4.5t-16.5 5.5q-12 3 -19 8q-22 13 -38 29.5
t-27 40.5q-4 9 -6 18t-5 20q-2 11 -3 32t2 33q3 11 5 21.5t7 19.5q27 63 94 85q9 3 18 4t19 3q4 1 10.5 0t9.5 1q57 0 91 -22t56 -57q4 -6 6 -12.5l4 -13.5q10 -25 10 -53zM290 518q2 11 1.5 29t-3.5 28q-2 7 -2.5 12.5t-2.5 11.5q-12 28 -34 44t-62 16q-2 -1 -5 -0.5
t-5 0.5q-7 -2 -13 -3.5t-11 -3.5q-20 -8 -32.5 -22.5t-20.5 -34.5q-2 -7 -3 -15t-3 -16q-2 -9 -1.5 -24.5t2.5 -23.5q2 -5 1.5 -8.5t1.5 -8.5q15 -44 52 -61q5 -2 11 -3.5t12 -3.5h8q3 -1 8 -2t9 1q7 2 14 2t13 2q39 12 56 50q3 8 5 16.5z" />
    <glyph glyph-name="Omegagreek" unicode="&#x3a9;" horiz-adv-x="768" 
d="M377 673q70 2 124 -13.5t95 -44.5q12 -8 24 -17.5t21 -21.5q4 -4 7 -6q15 -19 26 -38q4 -6 6.5 -12t5.5 -12q8 -14 13 -30l10 -33q1 -6 1.5 -12.5t2.5 -13.5v-5q2 -10 2 -26t-2 -26q0 -6 -1 -9q-1 -5 -1 -10t-2 -10q-5 -20 -10.5 -38.5t-13.5 -36.5q-16 -35 -40 -60
t-56 -44q-10 -6 -20.5 -11l-21.5 -10q-7 -3 -13.5 -5t-12.5 -7q-1 -1 -1.5 -2t-2.5 -3q0 -4 1 -7q2 -1 3 -2t3 -2q4 -2 8.5 -2t8.5 -1h13q8 -2 18.5 -1t18.5 1q12 0 25.5 -0.5t27 0t25.5 2t19 5.5q12 8 20 20q3 5 6 11.5t12 6.5q1 -1 2 -1.5t2 -1.5q2 -4 2 -7.5t1 -8.5
q2 -10 1.5 -21t-0.5 -22v-38q0 -5 0.5 -10t-0.5 -9v-5q-1 -5 -2.5 -9.5t-4.5 -6.5q-8 -7 -24 -7h-30h-126h-66q-11 0 -20 1.5t-14 8.5q-2 4 -2.5 11t0 15.5t1.5 16t2 12.5q0 4 0.5 7t0.5 6q3 14 3 30t7 26q6 11 17.5 16.5t22.5 11.5q28 17 47 44q12 17 20.5 35.5t16.5 39.5
q3 10 5 20.5l4 21.5q2 8 2.5 16.5t1.5 17.5v8q1 3 0.5 7t0.5 8q2 9 0 17v16q-1 3 -0.5 6.5t-0.5 7.5q-1 8 -2 14.5t-2 14.5q-3 12 -5 24.5t-6 23.5q-12 35 -32 63q-12 17 -31 32.5t-39 24.5q-8 3 -15.5 5.5t-15.5 4.5t-16 3t-16 3q-3 1 -6 0.5t-6 0.5h-9q-6 0 -12.5 0.5
t-11.5 -1.5h-7q-5 0 -10.5 -0.5t-10.5 -1.5l-23 -5.5t-21 -7.5q-45 -19 -70 -51.5t-41 -80.5q-3 -10 -5 -20.5l-4 -21.5q0 -4 -0.5 -7.5t-0.5 -7.5q-2 -5 -1.5 -11.5t-1.5 -11.5v-16q-2 -8 0 -16q1 -4 0.5 -8.5t0.5 -7.5v-8q1 -7 1.5 -13.5t1.5 -14.5q1 -4 1 -7.5t1 -7.5
q4 -14 6.5 -27.5t7.5 -26.5q10 -23 23 -44.5t31 -35.5l4.5 -4.5l4.5 -4.5q6 -5 12.5 -9t13.5 -7q7 -5 14.5 -8.5t12.5 -9.5q4 -6 5 -13t3 -15q0 -2 0.5 -4t0.5 -4q3 -14 3 -29.5t3 -29.5q2 -6 1.5 -16.5t-2.5 -14.5q-5 -8 -14.5 -9.5t-21.5 -1.5h-66h-124h-30.5t-23.5 7
q-3 2 -4.5 6.5t-2.5 9.5v5q-1 4 -1 9v10v38v30.5t5 26.5q1 1 4 3q8 0 10 -4t5 -9q5 -5 9.5 -11t10.5 -10q16 -10 43.5 -9.5t53.5 0.5q8 0 19.5 -1t19.5 1h11q5 1 10 1t10 2q2 1 3 2.5t3 3.5q0 8 -4 10.5t-9 4.5q-10 5 -20 9t-21 9q-32 14 -57.5 37.5t-43.5 52.5
q-11 17 -18 36t-14 40q-5 15 -8 35t-3 40t3 40t8 35q5 14 8.5 26.5t9.5 23.5q2 2 2 3.5t1 3.5l11 19t11 17q19 27 48 50t61 37q14 7 29 11.5l32 9.5q9 3 18.5 4.5t18.5 3.5q8 1 14.5 1.5t14.5 1.5q4 1 8 0.5t7 0.5q4 1 8.5 -0.5t7.5 0.5z" />
    <glyph glyph-name="ae" unicode="&#xe6;" horiz-adv-x="870" 
d="M842 286q2 -7 2 -19.5t-2 -19.5q-4 -8 -14 -13q-5 -2 -12 -1.5t-15 0.5h-258q-17 0 -37.5 0.5t-30.5 -7.5q-4 -2 -5 -7t-3 -10q-1 -4 0.5 -10.5t2.5 -9.5q1 -4 1 -7t1 -6l6 -17.5t7 -16.5q14 -26 31.5 -43t46.5 -28q6 -3 12 -3.5t13 -2.5q11 -3 30 -3.5t31 2.5
q10 2 18.5 4t16.5 6q16 7 29 18.5t22 25.5q6 11 11 23t17 17q5 2 14.5 3t19.5 0.5t18.5 -2.5t11.5 -5q2 -2 3.5 -5.5t0.5 -7.5q-5 -26 -17 -45.5t-26 -37.5l-5.5 -5.5t-6.5 -5.5q-2 -2 -2.5 -3t-2.5 -3q-5 -3 -9 -6.5t-9 -6.5q-14 -11 -30 -17.5t-34 -12.5q-8 -3 -17 -4
t-17 -3h-9q-7 -2 -21.5 -3t-22.5 1q-4 1 -8 0.5t-8 0.5q-5 2 -10 1t-10 1t-11 2t-11 2q-11 3 -20.5 6t-18.5 8q-16 7 -31 19l-6 6q-3 2 -6.5 5t-5.5 6l-11.5 14.5t-14.5 10.5t-16 -5t-11 -12q-2 -2 -6 -5t-6 -5t-4 -3.5t-4 -3.5q-20 -15 -39 -23q-23 -10 -52.5 -16.5
t-61.5 -8t-63 2t-55 14.5q-21 10 -38 25.5t-26 36.5q-6 13 -9 31q-4 14 -3.5 35t4.5 34q1 3 1 6t1 6q9 26 24 46q5 6 11 11l3.5 3.5l3.5 3.5q10 7 22 14q17 11 38 16.5l42 10.5q8 2 12 2q13 4 26.5 5.5t27.5 5.5q5 2 11 1.5t11 1.5q18 5 36 7.5t33 8t26 15t16 28.5
q3 14 -0.5 29.5t-8.5 23.5q-11 18 -33 29q-16 7 -38 9.5t-45 1.5t-43.5 -5.5t-33.5 -12.5q-11 -8 -20.5 -17.5t-14.5 -22.5q-4 -8 -6 -18t-9 -15q-5 -4 -11 -5q-4 -2 -12 -2t-16.5 0.5t-16 1.5t-10.5 3q-11 8 -8 26l7.5 24.5t8.5 22.5q19 35 48 54.5t72 31.5q10 2 20.5 3
t21.5 3q4 1 12.5 0.5t10.5 1.5q42 1 77.5 -4.5t61.5 -21.5q12 -8 22 -16q4 -3 6.5 -6t6.5 -6l7.5 -5t10.5 -1q8 2 13 6.5t10 8.5q10 9 27 19q14 8 30.5 12.5l34.5 9.5q7 2 14 1.5t14 1.5h10q3 1 8.5 1t8.5 -1h11.5t10.5 -1q10 -2 19 -3t17 -3q14 -5 26.5 -8.5t23.5 -10.5
q31 -19 51.5 -43t35.5 -58q4 -10 6.5 -20t6.5 -21q3 -11 5 -23l4 -23q2 -7 1.5 -13t1.5 -13zM381 150q5 14 5.5 31.5t0.5 35.5q0 9 -0.5 18t-4.5 14q-4 7 -17 7q-5 -1 -8.5 -1.5t-8.5 -1.5q-8 -3 -18 -4.5t-19 -3.5q-10 -2 -15 -2q-8 -2 -17.5 -3t-17.5 -3q-2 0 -4.5 -0.5
t-4.5 -0.5q-7 -2 -14 -2.5t-14 -2.5q-28 -8 -49.5 -16.5t-35.5 -29.5q-7 -9 -12.5 -26t-0.5 -34q2 -8 4.5 -15.5t7.5 -13.5q8 -12 21 -19t30 -12q5 -2 9 -1.5t9 -0.5q7 -2 17.5 -2.5t17.5 1.5h6l21 3q42 11 69.5 29.5t42.5 55.5zM748 315q3 4 4 11t-1 14q-5 23 -13 38
q-13 26 -30 41t-44 26q-6 2 -13 3t-14 3q-8 2 -17.5 2h-19.5q-2 -2 -6.5 -1.5t-7.5 -0.5q-8 -2 -16 -3.5t-16 -4.5q-27 -11 -46 -29t-30 -45l-5 -13t-4.5 -16.5t0 -16.5t7.5 -12q9 -6 27.5 -5.5t32.5 0.5h149q16 0 36 -0.5t27 9.5z" />
    <glyph glyph-name="oslash" unicode="&#xf8;" horiz-adv-x="574" 
d="M537 269q0 -2 0.5 -9.5t-0.5 -10.5q-1 -8 -1.5 -17t-0.5 -17q-2 -5 -2 -9.5t-1 -9.5q-4 -12 -6 -24.5t-7 -23.5q-7 -17 -14 -31.5t-16 -28.5q-4 -6 -8 -11t-9 -10q-1 -2 -5 -4q-5 -9 -13 -15q-6 -4 -11 -8t-11 -8q-5 -4 -11 -7t-11 -7q-2 -1 -3.5 -1t-3.5 -1l-18 -9
q-6 -2 -11.5 -3t-11.5 -3q-10 -3 -20.5 -4.5t-21.5 -3.5q-5 -1 -10.5 -1h-10.5q-5 -2 -12.5 -2t-12.5 2h-15q-9 2 -18 2.5t-18 2.5l-25 7.5t-23 8.5q-12 6 -26 14q-4 2 -8 4.5t-9 4.5q-6 2 -11.5 0.5t-9.5 -4.5q-10 -6 -16.5 -15t-15.5 -16l-9.5 -7.5t-13.5 -1.5
q-9 4 -9.5 12.5t4.5 15.5q8 11 16 19t15 19q3 4 5 10t0 13q-4 12 -11 22t-12 22q-6 14 -10.5 29l-9.5 32q-2 9 -3 19t-3 20v13q-2 5 -2 15.5t1 15.5v11q2 6 1.5 13t1.5 13q1 5 1.5 8.5t0.5 7.5q3 11 5 20.5t5 19.5q12 37 32 68t49 51q20 14 40 23t46 17q8 3 17 3.5t17 2.5
q4 1 10 0.5t9 1.5q36 0 66 -4.5t56 -15.5q15 -6 30 -15l11.5 -8t13.5 -6q6 -2 11 1t8 5q9 7 15.5 16t15.5 16q7 5 15 5.5t13 -7.5q4 -7 0.5 -13.5l-5.5 -10.5q-8 -11 -19 -21t-15 -24q-2 -5 -0.5 -9.5t3.5 -7.5q4 -8 8.5 -16t8.5 -16q7 -14 11.5 -29.5l9.5 -32.5q2 -8 3 -16
t3 -16v-10q1 -3 1 -7t1 -8v-10zM178 161l13.5 15t12.5 15q3 3 5 4l8 10t9 10q5 7 11.5 13t12.5 14l4 4q4 5 8.5 9.5t8.5 9.5q11 15 24.5 28t25.5 28l4 4q4 5 8 9.5t9 9.5q2 2 3.5 4t3.5 4q6 8 13 14.5t12 14.5q4 5 8 9t6 10q4 11 -3 18.5t-14 11.5q-17 12 -39 18.5t-52 6.5
q-5 -1 -10.5 -1t-10.5 -1q-10 -2 -19 -4.5t-17 -6.5q-44 -20 -69 -64.5t-28 -104.5q-3 -49 10 -89q3 -9 6.5 -18.5t11.5 -12.5t14 1t10 7zM448 243q1 5 1 16t-1 16q-2 5 -1 10.5t-1 10.5q-2 11 -3.5 21.5t-5.5 19.5l-7.5 18.5t-17.5 8.5q-2 -2 -5 -3t-5 -3q-5 -3 -10 -9
l-9 -11l-4 -4q-5 -7 -10.5 -12.5t-10.5 -12.5q-2 -2 -4.5 -4t-4.5 -4q-7 -9 -15 -17t-15 -17q-4 -5 -8.5 -9.5t-8.5 -9.5q-13 -17 -28 -31.5t-28 -31.5q-4 -5 -9 -9t-9 -9q-6 -9 -13.5 -16.5t-14.5 -16.5q-2 -2 -4 -4.5t-4 -4.5q-7 -11 -3 -20.5t12 -15.5q19 -13 46 -21
q21 -6 48 -4t45 9l11.5 4t10.5 6q26 16 43.5 38t29.5 52q4 9 6 20l4 22q2 5 1.5 10t1.5 10v8z" />
    <glyph glyph-name="questiondown" unicode="&#xbf;" 
d="M236 412q-10 7 -9.5 27t0.5 37v13.5t2 11.5q4 10 15 13q3 1 5.5 1t4.5 1h44q8 0 16 -0.5t13 -4.5q9 -6 9 -21.5v-30.5q0 -5 0.5 -11t-0.5 -11v-7q-2 -5 -3 -10t-5 -8q-7 -5 -18 -5.5t-22 -0.5h-29t-23 6zM493 24q5 -4 7.5 -14t0.5 -21q-2 -6 -2.5 -12.5t-2.5 -13.5
q-5 -22 -12 -37q-20 -48 -52 -78t-83 -47q-10 -3 -20 -4.5t-21 -3.5q-5 -2 -11 -1t-11 0q-5 -2 -13 -1.5t-12 2.5q-5 1 -10 0t-10 1q-12 3 -23 5t-21 6q-32 11 -55 27.5t-40 42.5q-4 5 -7.5 10.5t-5.5 11.5q-4 7 -6.5 14.5t-5.5 15.5q-1 4 -1 7.5t-2 7.5q-1 5 -1.5 10.5
t-2.5 10.5v10q-1 4 -1 10t1 9v9q0 10 1 15q0 3 0.5 6t0.5 7q3 9 5 18t5 17q8 17 17 30.5l19 27.5q3 3 6.5 6t6.5 7q6 7 13 13q6 7 13 13l20 20q12 12 23 24.5t20 26.5q8 12 12 25t8 29q2 10 1.5 21.5t4.5 19.5q2 3 5 5l6 4q2 1 5.5 0.5t5.5 1.5h30t22 -8q4 -6 5 -16.5
t-1 -19.5v-6q-1 -6 -1 -12.5t-2 -12.5l-8 -25.5t-11 -23.5l-10.5 -18t-12.5 -17q-5 -6 -11 -12t-11 -13l-14 -13.5l-14 -13.5q-17 -17 -32 -34t-27 -40q-5 -9 -8 -22t-4 -27t0 -28t5 -26q8 -23 19 -40q19 -26 56 -39q5 -2 10.5 -2t10.5 -2q7 -2 20.5 -2.5t20.5 1.5t13 3
t12 3q23 8 40.5 22t28.5 33q8 12 12 25.5l8 27.5q3 11 4 22t7 19q3 4 12 6t20 2.5t21 -1t15 -4.5z" />
    <glyph glyph-name="exclamdown" unicode="&#xa1;" horiz-adv-x="259" 
d="M178 508q7 -8 6.5 -24t-0.5 -31q0 -6 0.5 -12.5t-1.5 -11.5q-2 -6 -3 -10t-5 -7q-6 -5 -16.5 -5h-21.5h-29t-24 5q-10 7 -9.5 26t0.5 36v15t2 12q3 10 14 13q2 1 5 1t6 1h36q5 0 10 0.5t9 -0.5h5q5 -2 9.5 -3t6.5 -5zM176 12q2 -7 1.5 -16t-0.5 -17v-117q0 -6 0.5 -13
t-1.5 -13v-8q-2 -11 -5 -15q-3 -5 -8.5 -6t-13.5 -3h-18q-13 0 -25 0.5t-18 8.5q-2 3 -2.5 6.5t-2.5 8.5v11q-1 6 -0.5 13.5t0.5 14.5v112q0 8 -0.5 15.5t0.5 13.5v13q0 7 0.5 13.5t1.5 12.5v6q2 5 1.5 12t1.5 12v12q2 10 2 21t2 21q0 5 0.5 9t0.5 9q3 13 2.5 27t2.5 27
q1 3 0.5 6t0.5 6v12q3 14 2.5 30t3.5 30v5q2 8 2 16t4 13q2 3 5 5l6 4q4 0 6 1q14 0 20 -8q4 -6 5.5 -16t2 -21l1 -22t2.5 -19v-9t1 -9l6 -72q0 -5 0.5 -9t0.5 -9q2 -10 2 -21t2 -21v-12q2 -7 1.5 -14.5t1.5 -15.5v-6q2 -5 1.5 -11t0.5 -11v-13z" />
    <glyph glyph-name="logicalnot" unicode="&#xac;" horiz-adv-x="600" 
d="M75 386h340h86h23t18 -5q8 -5 8 -17.5v-24.5v-106v-77q0 -11 0.5 -21t-4.5 -16q-3 -5 -11.5 -8t-17.5 -3t-17 3t-11 8q-5 7 -5 20v24v100q0 18 -1 33.5t-14 20.5q-7 3 -16.5 3h-19.5h-68h-239q-8 0 -18.5 -0.5t-20.5 0t-18.5 2t-12.5 4.5q-4 2 -5 6.5t-3 9.5v6v10
q2 7 2 10.5t3 8.5q5 6 14 8q2 1 4 0.5t4 0.5z" />
    <glyph glyph-name="radical" unicode="&#x221a;" horiz-adv-x="549" 
d="M526 912q7 0 11 -5.5t4.5 -13t-0.5 -16t-2 -14.5q-2 -7 -2.5 -14.5t-2.5 -15.5q-2 -7 -2 -13.5t-2 -13.5q-5 -19 -6.5 -39t-6.5 -39q-2 -8 -2.5 -15t-2.5 -15q-5 -23 -7.5 -46.5t-7.5 -46.5q-2 -6 -1.5 -12t-1.5 -12q-5 -17 -6 -34.5t-6 -34.5q-1 -4 -1 -7.5t-1 -7.5
q-3 -14 -4.5 -28.5t-4.5 -28.5l-3 -18q-2 -11 -3.5 -22.5t-3.5 -22.5q-1 -3 -1 -6t-1 -6q-2 -9 -3 -19t-3 -20q-2 -8 -2.5 -15t-2.5 -15q-2 -7 -2 -13.5t-2 -13.5q-5 -22 -7.5 -45t-7.5 -45l-2 -13.5l-2 -13.5q-6 -24 -8.5 -49.5t-7.5 -49.5q-3 -13 -4.5 -30.5t-8.5 -25.5
q-1 -1 -2 -1.5t-2 -1.5q-10 1 -14.5 9.5l-8.5 15.5l-19 39.5l-19 39.5l-22 43.5t-21 44.5q-6 14 -13.5 28t-13.5 28q-2 4 -4 7.5t-4 7.5l-14 28t-13 29q-2 5 -4.5 8.5t-4.5 7.5l-14 29t-13 29q-2 4 -4 7.5t-4 6.5l-5.5 12.5t-5.5 11.5q-2 2 -2.5 4.5t-2.5 5.5q-2 4 -5.5 8.5
t-8.5 6.5q-8 3 -16 0.5t-13 -4.5l-24 -10q-7 -3 -14 -6.5t-15 -5.5q-14 -3 -17.5 9.5t5.5 18.5q8 6 17 10.5t18 9.5l28 13.5t28 14.5l15.5 8t20.5 1q5 -2 8 -7l6 -10q6 -10 11 -20.5l10 -21.5l41 -83l41 -83q15 -28 28 -56l27 -56l6.5 -12.5t8.5 -10.5q4 -2 8.5 -1.5
t6.5 4.5q6 8 7 22t4 26q6 23 8 46.5t7 45.5q2 7 2 13t2 12q4 17 5.5 34.5t5.5 34.5q2 10 2 15q4 14 5.5 30t4.5 30q2 10 2 15q2 9 3.5 19t3.5 20q1 4 1 7.5t1 7.5q2 9 3.5 19.5t3.5 19.5q0 6 1 9q2 9 2.5 18t2.5 18q7 26 9.5 52.5t8.5 52.5q2 6 1.5 12t1.5 12q6 25 8.5 51
t8.5 51q3 14 4 29.5t8 26.5q4 7 7 8q2 1 3 1t2 1z" />
    <glyph glyph-name="florin" unicode="&#x192;" 
d="M414 712q14 0 36 0.5t30 -5.5q3 -2 6 -8t1 -14q-3 -11 -5 -23t-10 -17q-6 -5 -16.5 -5.5t-21.5 -0.5h-13q-5 -1 -8.5 -1.5t-7.5 -0.5q-11 -3 -20 -8t-14 -13q-7 -8 -10 -19t-7 -23q-1 -3 -1 -5.5t-1 -5.5q-6 -23 -10.5 -45.5l-9.5 -46.5q-1 -5 0.5 -8.5t3.5 -5.5
q6 -9 20.5 -9.5t28.5 -0.5h14q3 -1 6.5 -1t5.5 -1q6 -3 9.5 -10t1.5 -17q-1 -2 -1 -4.5t-1 -5.5q-2 -8 -5.5 -14.5t-11.5 -9.5q-7 -3 -16.5 -3t-19.5 0.5t-20 0.5t-18 -3q-11 -4 -15 -13t-7 -21t-4 -24.5t-4 -23.5q0 -2 -0.5 -4.5t-0.5 -4.5q-3 -11 -4 -23t-4 -23
q-2 -8 -3 -16.5t-3 -16.5q-7 -26 -10 -54t-10 -54q-2 -5 -1.5 -10.5t-1.5 -11.5q-5 -19 -8 -38t-8 -36l-4 -16l-4 -16q-9 -27 -23 -56t-34 -45l-6 -6l-7.5 -5.5t-7.5 -4.5q-17 -11 -41 -15.5t-52 -4.5q-11 0 -24 -0.5t-21 3.5q-8 2 -10 10q-1 2 -1.5 6.5t0.5 8.5q2 10 4 22
t9 17q4 3 8.5 4t10.5 3q3 1 6.5 0.5t6.5 0.5h12q5 1 9 1.5t9 0.5q8 2 16 4.5t15 7.5q14 8 21.5 22.5t13.5 31.5q2 6 2.5 12t2.5 13q7 26 10.5 54t10.5 55q2 7 2.5 13.5t2.5 14.5q8 29 11.5 59t11.5 59q2 9 3 18t3 18q3 11 4.5 23.5t4.5 24.5q2 5 2.5 12t-1.5 12
q-4 11 -16 12.5t-25 1.5t-24.5 2t-14.5 15q-2 5 -0.5 11l2.5 10q3 11 6.5 17.5t13.5 9.5q7 0 10 1q4 1 8 0.5t8 -0.5q15 0 28.5 1t19.5 9q8 11 10 30t6 35q3 11 5 22l4 22q2 8 2 13q6 20 12 37.5t17 33.5q28 39 75 55q8 2 16 3t16 3q3 1 7 0t7 1z" />
    <glyph glyph-name="approxequal" unicode="&#x2248;" horiz-adv-x="549" 
d="M34 390q-8 -4 -11 1q-2 2 -3 6.5t0 9.5l4 15.5t5 14.5q20 45 67 64q5 2 11 2.5t11 2.5q3 1 7 0t6 1q14 0 26.5 -3t23.5 -7q8 -2 15 -4t14 -5q10 -4 19.5 -6.5t19.5 -6.5l45.5 -19.5l45.5 -19.5q25 -10 50 -17q4 -1 7 -1t8 -1q6 -2 16 -2t16 2t12.5 3.5t11.5 3.5
q26 11 42 39q3 6 5 13t7 13q1 1 2 1.5t2 1.5h5q1 -2 2 -2.5t2 -2.5q1 -3 0.5 -7.5t-1.5 -7.5v-7q-3 -9 -8 -20q-18 -44 -62 -62q-5 -2 -11 -3t-12 -3q-5 -2 -16 -2t-17 1h-5q-5 1 -9.5 2t-9.5 2q-12 3 -23 7l-22 8q-19 8 -37 14.5t-36 14.5l-41 16l-43 16q-7 2 -14 3.5
t-15 3.5q-7 2 -17.5 2t-17.5 -2q-4 -2 -7.5 -2t-7.5 -2q-32 -13 -48 -44q-2 -5 -6 -13.5t-8 -11.5zM527 248q2 -2 2 -6t-1 -7l-4 -17.5t-6 -16.5q-11 -23 -26 -37.5t-40 -23.5q-5 -2 -9.5 -2.5t-9.5 -2.5h-11q-2 -1 -9 -1q-5 1 -9 1.5t-9 0.5q-12 3 -24 5t-23 6t-22 8.5
t-22 9.5q-14 6 -28 11t-28 12l-31.5 13.5t-32.5 11.5q-10 3 -19.5 5t-19.5 5q-4 1 -8 0.5t-7 0.5q-5 1 -13.5 -0.5t-11.5 -2.5q-21 -6 -33 -15.5t-22 -26.5q-5 -7 -9 -19.5t-14 -12.5q-1 0 -1.5 0.5t-1.5 0.5q-1 2 -2 3.5t-2 3.5q-2 8 1 18.5t5 16.5q9 23 23.5 40t36.5 27
q6 3 12.5 4.5t13.5 3.5q2 1 5.5 0.5t5.5 0.5q20 1 35 -2t29 -8q11 -4 21.5 -7t20.5 -8q9 -4 17.5 -6.5t17.5 -6.5l39.5 -16.5l39.5 -16.5q12 -5 27 -10t30.5 -7t31 -1t30.5 7q25 12 40 38q4 6 6 13t7 13q1 1 2 1.5t3 2.5h3q3 -1 4 -4z" />
    <glyph glyph-name="Delta" unicode="&#x2206;" horiz-adv-x="612" 
d="M577 49q2 -6 7.5 -18t1.5 -20q-3 -8 -14 -9t-22 -1h-476q-10 0 -21.5 -0.5t-19.5 2.5q-12 5 -9 17t7 21l26.5 58l26.5 58l12.5 26t12.5 27l53 118l53 118q7 17 14.5 33l15.5 33l21.5 46.5l20.5 46.5l8 18t9 17q2 2 3 4.5t3 4.5t3.5 2t3.5 2q11 -2 15 -13.5t8 -19.5
l21.5 -51.5l21.5 -51.5l59.5 -143.5l59.5 -143.5q10 -22 18.5 -44t18.5 -45t18.5 -46t19.5 -46zM472 49q3 8 0 15.5l-5 12.5q-12 33 -27 66l-11.5 30t-12.5 30l-40 96.5l-40 96.5q-8 18 -15 36.5t-15 36.5q-3 7 -7 13.5t-13 7.5q-1 -1 -2 -1t-2 -1l-6 -6q-5 -7 -8.5 -15.5
t-7.5 -16.5l-14 -29.5l-14 -30.5l-43.5 -97l-44.5 -98l-10 -21l-10 -21q-9 -21 -19 -41t-18 -40q-4 -9 -3 -18t10 -13q6 -2 14 -2h16h303q6 0 12 -0.5t11 0.5h5q5 2 10 3.5t7 6.5z" />
    <glyph glyph-name="guillemotleft" unicode="&#xab;" horiz-adv-x="463" 
d="M137 305l-14.5 -12t-6.5 -18q2 -9 9.5 -15l13.5 -11q8 -6 16 -13t16 -13l16.5 -12.5t12.5 -17.5q1 -3 2 -10.5t1 -16t-1 -15.5t-2 -10t-3 -5l-4 -4q-9 -1 -14.5 2.5t-10.5 8.5q-8 5 -15.5 11.5t-15.5 12.5l-27 21.5l-27 21.5q-9 6 -17 13t-12 18q-3 8 -2.5 20t0.5 23
v16.5t2 14.5q5 13 17 22.5l23 17.5q4 2 7 5l6 6q12 8 23 17.5t23 17.5q5 3 8.5 7t7.5 7q3 2 6.5 4t6.5 3q2 1 2.5 1t2.5 1q6 0 8 -2q3 -2 5 -10t2.5 -17t-0.5 -18t-2 -14q-4 -10 -11.5 -16.5t-15.5 -12.5l-18 -14.5zM396 191q3 -8 3 -24t-3 -24q-2 -9 -7 -10
q-3 -2 -8.5 -0.5t-7.5 3.5q-10 6 -18.5 14t-18.5 15l-28 22.5t-29 22.5q-8 5 -15.5 12t-11.5 16t-4 22v25q0 5 -0.5 11t1.5 11q4 18 16 28l25 20q5 3 8 6.5t8 6.5q16 11 30.5 24t31.5 24q2 2 5 3.5l5 2.5t3 1t2 1q5 0 9 -2q3 -2 4.5 -9.5t2 -16.5t0 -17.5t-2.5 -13.5
q-3 -11 -11.5 -18.5t-16.5 -13.5l-17.5 -14l-16.5 -14l-15 -12t-7 -19q2 -8 9.5 -14t14.5 -11l16.5 -14l17.5 -14q8 -6 15.5 -12.5t10.5 -17.5z" />
    <glyph glyph-name="guillemotright" unicode="&#xbb;" horiz-adv-x="463" 
d="M328 251l14.5 12t6.5 18q-2 9 -9.5 15l-13.5 11q-8 6 -16 13t-16 13l-16.5 12.5t-12.5 17.5q-1 3 -2 10.5t-1 16t0.5 15.5t2.5 10q1 3 3 5l4 4q9 1 14.5 -2.5t10.5 -8.5q8 -5 15.5 -11.5t15.5 -12.5l27 -21.5l27 -21.5q9 -6 17 -13t12 -18q3 -8 2.5 -20t-0.5 -23v-16.5
t-2 -14.5q-5 -13 -17 -22.5l-23 -17.5q-4 -2 -7 -5l-6 -6q-12 -8 -23 -17.5t-23 -17.5q-5 -3 -8.5 -7t-7.5 -7q-3 -2 -6.5 -4t-6.5 -3q-2 -1 -2.5 -1t-2.5 -1q-6 0 -8 2q-3 2 -5 10t-2.5 17t0 18t2.5 14q4 10 11.5 16.5t15.5 12.5l18 14.5zM69 365q-3 8 -3 24t3 24q2 9 7 10
q3 2 8.5 0.5t7.5 -3.5q10 -6 18.5 -14t18.5 -15l28 -22.5t29 -22.5q8 -5 15.5 -12t11.5 -16t4 -22v-25q0 -5 0.5 -11t-1.5 -11q-4 -18 -16 -28l-25 -20q-5 -3 -8 -6.5t-8 -6.5q-16 -11 -30.5 -24t-31.5 -24q-2 -2 -5 -3.5l-5 -2.5t-3 -1t-2 -1q-5 0 -9 2q-3 2 -4.5 9.5
t-2 16.5t0 17.5t2.5 13.5q3 11 11.5 18.5t16.5 13.5l17.5 14l16.5 14l15 12t7 19q-2 8 -9.5 14t-14.5 11l-16.5 14l-17.5 14q-8 6 -15.5 12.5t-10.5 17.5z" />
    <glyph glyph-name="ellipsis" unicode="&#x2026;" horiz-adv-x="1000" 
d="M221 77q1 -5 0.5 -10.5t-0.5 -10.5q0 -14 -0.5 -29t-8.5 -21q-7 -5 -18 -5h-22h-29t-23 5q-5 3 -6.5 11t-2 17t0 18.5t0.5 17.5v12.5t2 11.5q4 11 13 14q2 1 6 0.5t6 1.5q8 0 18.5 0.5t21 0t19.5 -2t14 -4.5q4 -3 5.5 -8t3.5 -10v-9zM548 101q5 -5 5.5 -13.5t0.5 -18.5
q0 -17 0.5 -37t-10.5 -27q-7 -4 -17.5 -4h-20.5q-13 0 -28 -0.5t-23 4.5q-11 7 -10.5 26.5t0.5 36.5v15.5t2 12.5q4 9 15 12q2 1 4.5 1t5.5 1q8 0 20 0.5t23 -0.5t20.5 -3t12.5 -6zM887 62v-31.5t-8 -24.5q-7 -5 -17.5 -5h-22.5q-14 0 -29.5 -0.5t-23.5 5.5t-8.5 21t-0.5 29
v11t1 11v8q1 2 1 5t1 5q4 9 15 12q2 1 5 0.5t5 1.5q9 0 20 0.5t21.5 0t19 -2t13.5 -5.5q3 -2 4.5 -6.5t2.5 -8.5v-5q2 -5 1.5 -10.5t-0.5 -10.5z" />
    <glyph glyph-name="nonbreakingspace" unicode="&#xa0;" horiz-adv-x="278" 
 />
    <glyph glyph-name="Agrave" unicode="&#xc0;" horiz-adv-x="648" 
d="M635 53l-21.5 53l-21.5 53l-5.5 17t-6.5 17q-31 73 -58.5 147.5t-57.5 147.5q-9 20 -16.5 41t-15.5 41q-10 23 -18 46t-18 46q-5 11 -9.5 24.5t-12.5 19.5q-11 8 -35 7.5t-42 -0.5q-2 -1 -4.5 -0.5t-4.5 -0.5q-9 -2 -13 -6q-9 -6 -13.5 -19.5t-9.5 -24.5
q-11 -26 -20.5 -53t-20.5 -53q-30 -73 -57 -146.5t-57 -145.5q-9 -22 -17 -43.5t-17 -43.5q-13 -32 -24 -63.5t-25 -63.5q-2 -3 -4.5 -9.5t-4 -13t-1 -12.5t5.5 -9q5 -4 12.5 -4.5t15.5 -0.5q15 0 28.5 0.5t21.5 6.5q4 3 7.5 9.5t6.5 14.5t5.5 15.5l4.5 13.5q10 23 18.5 48
t18.5 48q5 13 8.5 25.5t11.5 22.5q4 6 12.5 8t18.5 3t21 0.5t20 -0.5h189q7 0 13.5 0.5t11.5 -1.5q10 -3 16 -8t9.5 -12t6 -15l5.5 -17q11 -27 20 -55t20 -54q5 -12 9.5 -27t14.5 -21q9 -5 24.5 -5h29.5h14t12 2q7 3 8.5 9.5t0 14t-4.5 14.5zM421 296q-8 -3 -24 -2.5
t-27 0.5h-107q-14 0 -30 0.5t-21 8.5q-2 4 -2.5 10t1.5 11q2 8 5 16l6 16q2 5 3.5 10t3.5 10q16 38 28.5 78t29.5 79q5 11 8 22t8 22l4 11.5t6 10.5q2 2 4 3t4 3q8 0 10.5 -4.5t4.5 -9.5q5 -10 8.5 -21t8.5 -22q15 -36 26.5 -73.5t26.5 -73.5q4 -9 6.5 -17.5t5.5 -16.5
q2 -4 2 -7t2 -7q3 -6 6.5 -14.5t5 -17t-1 -15.5t-11.5 -10zM235 906q14 0 31 0.5t28 -4.5q8 -3 12.5 -9.5t8.5 -13.5q9 -14 17 -28t17 -28l10.5 -17t10.5 -19q1 -3 1 -8t-2 -7q-3 -5 -10.5 -6.5t-15.5 -0.5t-15 3t-11 4q-5 4 -9.5 8.5t-8.5 9.5l-6 6q-2 3 -4.5 5.5t-4.5 5.5
q-3 2 -5.5 5t-4.5 5q-8 11 -18.5 21t-18.5 21q-6 8 -15 15.5t-9 21.5q2 3 3.5 4.5t6.5 3.5q3 1 6.5 0.5t5.5 1.5z" />
    <glyph glyph-name="Atilde" unicode="&#xc3;" horiz-adv-x="648" 
d="M635 53l-21.5 53l-21.5 53l-5.5 17t-6.5 17q-31 73 -58.5 147.5t-57.5 147.5q-9 20 -16.5 41t-15.5 41q-10 23 -18 46t-18 46q-5 11 -9.5 24.5t-12.5 19.5q-11 8 -35 7.5t-42 -0.5q-2 -1 -4.5 -0.5t-4.5 -0.5q-9 -2 -13 -6q-9 -6 -13.5 -19.5t-9.5 -24.5
q-11 -26 -20.5 -53t-20.5 -53q-30 -73 -57 -146.5t-57 -145.5q-9 -22 -17 -43.5t-17 -43.5q-13 -32 -24 -63.5t-25 -63.5q-2 -3 -4.5 -9.5t-4 -13t-1 -12.5t5.5 -9q5 -4 12.5 -4.5t15.5 -0.5q15 0 28.5 0.5t21.5 6.5q4 3 7.5 9.5t6.5 14.5t5.5 15.5l4.5 13.5q10 23 18.5 48
t18.5 48q5 13 8.5 25.5t11.5 22.5q4 6 12.5 8t18.5 3t21 0.5t20 -0.5h189q7 0 13.5 0.5t11.5 -1.5q10 -3 16 -8t9.5 -12t6 -15l5.5 -17q11 -27 20 -55t20 -54q5 -12 9.5 -27t14.5 -21q9 -5 24.5 -5h29.5h14t12 2q7 3 8.5 9.5t0 14t-4.5 14.5zM421 296q-8 -3 -24 -2.5
t-27 0.5h-107q-14 0 -30 0.5t-21 8.5q-2 4 -2.5 10t1.5 11q2 8 5 16l6 16q2 5 3.5 10t3.5 10q16 38 28.5 78t29.5 79q5 11 8 22t8 22l4 11.5t6 10.5q2 2 4 3t4 3q8 0 10.5 -4.5t4.5 -9.5q5 -10 8.5 -21t8.5 -22q15 -36 26.5 -73.5t26.5 -73.5q4 -9 6.5 -17.5t5.5 -16.5
q2 -4 2 -7t2 -7q3 -6 6.5 -14.5t5 -17t-1 -15.5t-11.5 -10zM467 888q16 0 21.5 -9.5t0.5 -24.5q-7 -18 -16.5 -34t-24.5 -25q-14 -9 -37 -14t-45 2q-20 5 -38.5 13t-38.5 15q-6 2 -12.5 2.5t-12.5 2.5q-5 1 -10.5 0.5t-8.5 -1.5q-8 -3 -15.5 -6.5t-12.5 -9.5l-8 -10t-9 -8
q-8 -5 -19 -4t-15 9q-2 5 -1 10t2 8q8 20 16 34q6 10 13 18t17 14q12 7 29 12q8 2 19.5 1.5t19.5 -2.5q6 -2 11 -2t10 -2q25 -9 47 -19q10 -5 24 -9q3 -1 6 -1t7 -1q3 -1 7.5 -1.5t7.5 0.5q9 2 16.5 5t12.5 9q4 5 8 11t9 9q4 4 11 6q2 1 4.5 1t4.5 1z" />
    <glyph glyph-name="Otilde" unicode="&#xd5;" horiz-adv-x="760" 
d="M522 888q16 0 21.5 -9.5t0.5 -24.5q-7 -18 -16.5 -34t-24.5 -25q-14 -9 -37 -14t-45 2q-20 5 -38.5 13t-38.5 15q-6 2 -12.5 2.5t-12.5 2.5q-5 1 -10.5 0.5t-8.5 -1.5q-8 -3 -15.5 -6.5t-12.5 -9.5l-8 -10t-9 -8q-8 -5 -19 -4t-15 9q-2 5 -1 10t2 8q8 20 16 34
q6 10 13 18t17 14q12 7 29 12q8 2 19.5 1.5t19.5 -2.5q6 -2 11 -2t10 -2q25 -9 47 -19q10 -5 24 -9q3 -1 6 -1t7 -1q3 -1 7.5 -1.5t7.5 0.5q9 2 16.5 5t12.5 9q4 5 8 11t9 9q4 4 11 6q2 1 4.5 1t4.5 1zM720 371q-2 5 -1 10t0 10v6q-2 8 -2 15t-2 14q-1 5 -1 10t-2 10
q-3 11 -5.5 21.5t-5.5 20.5q-2 6 -3.5 11.5t-3.5 11.5q-8 20 -16 38q-3 6 -7 12l-5 8.5t-4 8.5q-5 8 -11 16.5l-12 16.5q-3 5 -7 8t-7 8q-11 14 -25 25t-29 21q-38 27 -88 42.5t-117 13.5q-2 -1 -5 0t-5 0q-8 -1 -15.5 -1.5t-15.5 -1.5q-6 -2 -12.5 -2t-12.5 -2
q-13 -4 -25.5 -7t-23.5 -8q-52 -21 -90 -54t-66 -78q-11 -16 -18 -34l-15 -37q-6 -14 -9 -29.5t-7 -31.5q-2 -6 -2 -12t-2 -12l-3 -36v-13q-2 -5 -2 -14t2 -14v-21q1 -3 0.5 -7t1.5 -8q2 -8 2 -16t2 -15q2 -5 1.5 -8t1.5 -7q5 -16 8 -31t9 -29q26 -63 65.5 -110.5
t100.5 -74.5l20 -8l20 -8q10 -3 19.5 -4.5t19.5 -4.5q7 -1 13.5 -1.5t13.5 -2.5h11q4 -1 8.5 -0.5t9.5 -0.5q3 -1 13.5 -1.5t13.5 0.5l33 3q4 1 8 1t9 1q11 3 22 5t22 5q78 26 126.5 75t78.5 122q6 15 10 31t9 33q1 8 2 15t3 15q2 9 2 19.5t2 20.5v12q1 5 1 14.5t-1 14.5z
M626 339v-9l-3 -33q-2 -7 -2.5 -13.5t-2.5 -12.5q-4 -14 -7.5 -28t-8.5 -27q-21 -51 -53.5 -85t-83.5 -55q-11 -5 -23.5 -7t-26.5 -5q-5 0 -10 -0.5t-10 -1.5h-10q-8 0 -15.5 -0.5t-13.5 1.5q-7 2 -13 1.5t-13 1.5l-31.5 9t-28.5 12q-50 25 -81 69l-9.5 15.5l-9.5 15.5
q-6 10 -9.5 20.5t-8.5 21.5t-7 22t-5 22q-2 4 -1.5 7.5t-0.5 7.5q-2 8 -2.5 17.5t-2.5 17.5q0 4 -0.5 7.5t-0.5 7.5q-1 5 -1 18t1 18v9q1 4 0.5 8.5t1.5 8.5q1 5 1 9.5t1 9.5q3 12 4.5 23.5t5.5 22.5q19 58 50 101t85 66q13 5 26.5 8.5l28.5 7.5q8 1 14.5 1.5t13.5 1.5
q17 0 34.5 -0.5t31.5 -4.5q30 -6 52 -16q40 -18 69.5 -51t46.5 -74q5 -12 8.5 -24.5t8.5 -26.5q2 -8 3.5 -17t3.5 -18q2 -5 1.5 -9.5t1.5 -9.5q0 -5 0.5 -9t0.5 -9v-8q2 -5 2 -17.5t-2 -17.5z" />
    </font>
</defs>
</svg>
